<?xml version="1.0" standalone="no"?>
<!DOCTYPE svg PUBLIC "-//W3C//DTD SVG 1.1//EN" "http://www.w3.org/Graphics/SVG/1.1/DTD/svg11.dtd" >
<!--
2013-9-30: Created.
-->
<svg>
<metadata>
Created by iconfont
</metadata>
<defs>

<font id="iconfont" horiz-adv-x="1024" >
  <font-face
    font-family="iconfont"
    font-weight="500"
    font-stretch="normal"
    units-per-em="1024"
    ascent="896"
    descent="-128"
  />
    <missing-glyph />
    
    <glyph glyph-name="zh" unicode="&#59146;" d="M694.89664 527.05792h-155.04896V593.2544c0 12.99968-8.15104 28.1856-31.11936 28.1856-22.96832 0-31.11936-15.18592-31.11936-28.1856v-66.19648H331.06432c-28.14464 0-44.94336-15.2832-44.94336-40.88832v-145.21344c0-26.33728 17.22368-42.7008 44.94336-42.7008h146.54464v-126.09024c0-12.99968 8.15104-28.1856 31.11936-28.1856 22.96832 0 31.11936 15.18592 31.11936 28.1856v126.09024h155.04896c27.7248 0 44.94336 16.36352 44.94336 42.7008V486.1696c-0.00512 25.60512-16.80384 40.88832-44.94336 40.88832z m-17.29536-168.79104h-137.75872v110.592h137.7536l0.00512-110.592zM477.60384 468.88448l-0.0256-110.6176H348.35456V468.88448h129.24928zM913.39264 551.8540800000001a432.86016 432.86016 0 0 1-93.12256 138.112c-39.88992 39.89504-86.35904 71.22432-138.10688 93.12256-53.56032 22.66112-110.47936 34.1504-169.17504 34.1504-58.63936 0-115.5584-11.48928-169.16992-34.1504a432.91648 432.91648 0 0 1-138.112-93.12256c-39.88992-39.88992-71.2192-86.35392-93.12256-138.112-22.67136-53.59616-34.16576-110.50496-34.16576-169.14432 0-58.67008 11.49952-115.57888 34.17088-169.14432 21.89312-51.74784 53.2224-98.21696 93.12256-138.112a433.26976 433.26976 0 0 1 138.11712-93.12768c53.56032-22.656 110.47936-34.14528 169.1648-34.14528 58.62912 0 115.54304 11.48928 169.17504 34.14528a432.90624 432.90624 0 0 1 138.10688 93.12768c39.90016 39.89504 71.22944 86.36416 93.12256 138.10688 22.656 53.56032 34.14528 110.46912 34.14528 169.14944 0 58.61376-11.48928 115.52256-34.1504 169.14432z m-27.00288-169.1392c0-205.88544-167.49568-373.38112-373.376-373.38112-205.9008 0-373.41184 167.49568-373.41184 373.38112 0 205.88032 167.51104 373.38112 373.41184 373.38112 205.88032-0.03072 373.376-167.5264 373.376-373.38112z"  horiz-adv-x="1024" />

    
    <glyph glyph-name="en" unicode="&#59026;" d="M512-37.875a421.875 421.875 0 1 0 421.875 421.875 421.875 421.875 0 0 0-421.875-421.875z m0 60.260625A361.614375 361.614375 0 1 1 150.385625 384 361.63125 361.63125 0 0 1 512 22.402500000000032z m97.03125 403.3125v-6.75a98.094375 98.094375 0 0 0 32.416875 28.6875 86.3325 86.3325 0 0 0 40.5 9.163125 81 81 0 0 0 39.774375-9.669375 61.66125 61.66125 0 0 0 26.15625-27.421875A64.49625 64.49625 0 0 0 755 397.5a233.060625 233.060625 0 0 0 1.6875-30.375v-104.625a37.26 37.26 0 0 0-7.745625-25.54875 25.68375 25.68375 0 0 0-20.064375-8.656875 25.936875 25.936875 0 0 0-20.401875 8.859375 37.125 37.125 0 0 0-7.83 25.3125v93.639375a93.808125 93.808125 0 0 1-7.711875 42.55875 31.48875 31.48875 0 0 1-30.796875 14.731875 45.748125 45.748125 0 0 1-27.421875-8.994375 51.181875 51.181875 0 0 1-18.09-24.60375 174.65625 174.65625 0 0 1-4.134375-46.94625v-70.47a36.466875 36.466875 0 0 0-7.948125-25.633125 26.679375 26.679375 0 0 0-20.48625-8.555625 25.464375 25.464375 0 0 0-19.98 8.859375 37.125 37.125 0 0 0-7.83 25.3125v162.54a35.4375 35.4375 0 0 0 7.02 24.013125 24.283125 24.283125 0 0 0 19.13625 7.93125 26.105625 26.105625 0 0 0 13.415625-3.493125 25.126875 25.126875 0 0 0 9.585-10.53 36.88875 36.88875 0 0 0 3.61125-17.0775z m-106.160625 62.4375h-137.80125v-74.131875h126.9a30.105 30.105 0 0 0 20.908125-6.328125 21.36375 21.36375 0 0 0 6.901875-16.588125 22.14 22.14 0 0 0-6.75-16.77375 29.53125 29.53125 0 0 0-21.009375-6.48h-126.9v-85.876875h142.52625a31.2525 31.2525 0 0 0 21.751875-6.75 23.0175 23.0175 0 0 0 7.29-17.82 22.4775 22.4775 0 0 0-7.29-17.415 31.2525 31.2525 0 0 0-21.751875-6.75h-166.21875a39.268125 39.268125 0 0 0-28.6875 8.859375 39.706875 39.706875 0 0 0-8.74125 28.6875V497.83875a50.810625 50.810625 0 0 0 3.915 21.5325 24.33375 24.33375 0 0 0 12.234375 12.15 51.721875 51.721875 0 0 0 21.33 3.796875h161.510625a31.235625 31.235625 0 0 0 21.70125-6.48 21.9375 21.9375 0 0 0 7.104375-16.993125 22.156875 22.156875 0 0 0-7.104375-17.17875 31.235625 31.235625 0 0 0-21.70125-6.51375z m0 0"  horiz-adv-x="1024" />

    
    <glyph glyph-name="level" unicode="&#59027;" d="M951.08904776 739.94356992l0-20.08698135c-24.64599023 0-67.70429648-6.00073154-79.66258859-17.98060956-12.00146309-11.97807891-26.10839883-38.75562334-42.32620282-80.3281377L594.45744365 28.488137400000028l-150.37714424-0.4308082L184.96238135 608.8574466800001c-20.43144756 45.78885527-38.02441904 75.74844287-52.8643582 89.85717686-14.79676816 14.0862498-34.49701143 21.14196592-59.18797091 21.14196591L72.91005312 739.94356992 478.06106065 739.94356992l0-20.08698135c-31.01277305 0-79.61851846-2.30243906-90.54521016-6.883033-10.92399346-4.58149395-16.38778887-15.31301748-16.38778887-32.23954161 0-9.87170713 5.8073625-27.8514167 17.42028926-53.91844365 11.614725-26.08771289 20.26056357-45.83112627 25.89524297-59.20775683l159.49696113-355.9426708 155.32379033 386.71890469c4.25771367 13.37752969 8.90306367 27.09952646 13.89377988 41.18577627 4.30088378 15.50728565 6.40905469 26.04634102 6.40905469 31.68012128 0 19.72272832-6.83896289 32.73420586-20.60502978 39.0794045-13.71929854 6.34429864-72.99450967 9.52814004-96.95246661 9.52814003L632.00968349 739.94356992 951.08904776 739.94356992z"  horiz-adv-x="1024" />

    
    <glyph glyph-name="woman" unicode="&#59036;" d="M692 204H557v94c127.6 21.5 225 132.2 225 266 0 149.1-120.9 270-270 270S242 713.1 242 564c0-133.7 97.4-244.5 225-266v-94H332c-24.9 0-45-20.1-45-45s20.1-45 45-45h135v-135c0-24.9 20.1-45 45-45s45 20.1 45 45V114h135c24.9 0 45 20.1 45 45s-20.1 45-45 45zM332 564c0 99.4 80.6 180 180 180s180-80.6 180-180-80.6-180-180-180-180 80.6-180 180z"  horiz-adv-x="1024" />

    
    <glyph glyph-name="man" unicode="&#59031;" d="M926.766875 737.0634375c0.0871875 9.1246875-3.21 18.0975-9.1846875 24.995625-6.3965625 7.374375-15.5803125 12.0346875-25.3059375 12.8390625-0.1340625 0.015-0.2709375 0.0271875-0.405 0.04125L673.9475 790.7221875c-20.7103125 1.49625-38.7328125-14.0803125-40.235625-34.8-1.501875-20.7234375 14.0803125-38.7375 34.80375-40.239375l135.6571875-9.826875L642.9603125 545.259375c-57.8503125 52.1971875-134.476875 83.9746875-218.529375 83.9746875-180.2334375 0-326.3371875-146.1046875-326.3371875-326.334375s146.1046875-326.3353125 326.3371875-326.3353125c180.2278125 0 326.3315625 146.105625 326.3315625 326.3353125 0 69.03-21.4303125 133.04625-58.00125 185.77125l151.8440625 151.2703125-8.559375-122.041875c-1.4559375-20.7234375 14.17125-38.701875 34.895625-40.156875 0.8953125-0.0590625 1.7859375-0.0928125 2.6728125-0.0928125 19.5759375 0 36.0928125 15.1584375 37.4840625 34.9875l15.585 222.148125C926.735 735.5428125 926.7575 736.306875 926.766875 737.0634375 926.7715625 737.34 926.766875 736.935 926.766875 737.0634375L926.766875 737.0634375zM655.8275 205.18218750000005c-12.6459375-29.8903125-30.7621875-56.750625-53.84625-79.8375-23.0840625-23.0840625-49.9425-41.199375-79.8365625-53.84625-30.9084375-13.06875-63.78375-19.6978125-97.7184375-19.6978125-33.931875 0-66.804375 6.628125-97.71375 19.6978125-29.895 12.6459375-56.7534375 30.7621875-79.8384375 53.84625-23.0878125 23.086875-41.203125 49.9471875-53.8453125 79.8375-13.0734375 30.9084375-19.6996875 63.789375-19.6996875 97.7175 0 33.93 6.62625 66.8053125 19.6996875 97.7146875 12.6421875 29.8940625 30.7575 56.7534375 53.8453125 79.84125 23.085 23.085 49.9434375 41.2003125 79.8384375 53.8415625 30.909375 13.0734375 63.781875 19.700625 97.71375 19.700625 33.9346875 0 66.81-6.62625 97.7184375-19.700625 29.8940625-12.64125 56.7525-30.7575 79.8365625-53.8415625 23.0840625-23.0878125 41.199375-49.9471875 53.84625-79.84125 13.0734375-30.9103125 19.700625-63.7846875 19.700625-97.7146875C675.528125 268.9715625 668.9009375 236.08968749999997 655.8275 205.18218750000005L655.8275 205.18218750000005zM655.8275 205.18218750000005"  horiz-adv-x="1024" />

    
    <glyph glyph-name="column-line" unicode="&#59022;" d="M962.64552074 728.4375c0-3.5625-0.37500001-7.03125002-0.84375-10.5h0.84375v-669.375h-0.84375c0.46875001-3.46875001 0.84375001-6.9375 0.84375-10.5 0-40.40625001-32.8125-73.21875001-73.21875-73.21875001s-73.21875001 32.8125-73.21875 73.21875001c0 3.5625 0.37500001 7.03125002 0.84375 10.5h-0.84375v669.375h0.84375c-0.46875001 3.46875001-0.84375001 6.9375-0.84375 10.5 0 40.40625001 32.8125 73.21875001 73.21875 73.21875001s73.21875001-32.8125 73.21875-73.21875001z"  horiz-adv-x="1024" />

    
    <glyph glyph-name="empty-page" unicode="&#58919;" d="M812.86686 170.99062800000002c-20.980847 0-37.996382-16.974603-38.080294-37.934984l0-50.776454c0-42.061978-8.711406-50.7785-50.734498-50.7785L190.987311 31.50069099999996c-42.065048 0-50.777477 8.717546-50.777477 50.7785L140.209834 691.507606c0 42.065048 8.712429 50.777477 50.777477 50.777477l533.064758 0c42.023092 0 50.734498-8.712429 50.734498-50.777477l0-126.938064 0.049119 0c0-0.069585-0.00614-0.128937-0.00614-0.198521 0-21.022803 17.043165-38.057781 38.057781-38.057781 21.022803 0 38.064944 17.043165 38.064944 38.057781 0 0.069585-0.007163 0.128937-0.007163 0.198521l0.007163 0L850.95227 742.2840590000001c0 42.022069-34.100656 76.122725-76.166727 76.122725L140.209834 818.406784c-42.065048 0-76.165704-34.100656-76.165704-76.122725l0-710.784392c0-42.015929 34.100656-76.116585 76.165704-76.116585l634.576733 0c42.065048 0 76.166727 34.100656 76.166727 76.116585l0 101.554954-0.007163 0C850.862219 154.016025 833.847707 170.99062800000002 812.86686 170.99062800000002zM482.904847 513.836067L254.413875 513.836067c-21.013593 0-38.038338-17.071817-38.038338-38.086433 0-21.050432 17.024745-38.07927 38.038338-38.07927l228.490971 0c21.010523 0 38.037315 17.036002 38.037315 38.07927C520.942161 496.76425 503.914346 513.836067 482.904847 513.836067zM482.904847 336.11541L254.413875 336.11541c-21.013593 0-38.038338-17.031908-38.038338-38.081317 0-21.008476 17.024745-38.080294 38.038338-38.080294l228.490971 0c21.010523 0 38.037315 17.071817 38.037315 38.080294C520.942161 319.08350099999996 503.914346 336.11541 482.904847 336.11541zM868.535741 359.95332800000006l78.694293 78.69327c14.785751 14.786775 14.786775 38.759769 0 53.546543s-38.760792 14.785751-53.546543 0l-78.694293-78.694293-78.69327 78.694293c-14.786775 14.786775-38.760792 14.786775-53.546543 0-14.786775-14.786775-14.786775-38.759769 0-53.546543l78.694293-78.694293-78.694293-78.69327c-14.785751-14.786775-14.785751-38.759769 0-53.546543 14.786775-14.786775 38.759769-14.786775 53.546543 0l78.69327 78.69327 78.694293-78.69327c14.785751-14.785751 38.759769-14.786775 53.546543 0 14.785751 14.785751 14.785751 38.760792 0 53.546543L868.535741 359.95332800000006z"  horiz-adv-x="1024" />

    
    <glyph glyph-name="empty-data" unicode="&#58927;" d="M780.64943769 342.34898823000003L780.64943769 542.1155744c-61.36852725 0-105.44625796 0-105.44625795 0-58.23335989 0-105.45037784 47.21454519-105.45037785 105.44790592 0 0-1.24005954 42.31198443-0.73744409 105.45037783L253.4049651 753.01385815c-29.10390875 0-52.7251885-23.62045578-52.7251885-52.7251885l0-632.69649838c0-29.1310991 23.62045578-52.7251885 52.7251885-52.72518851l241.87505301 0c0 0 26.00829135 0.00411987 26.23488025-25.17197278 0.26366692-29.13521897-26.23488025-27.55321656-26.23488025-27.55321655L253.4049651-37.85820739999997c-58.23500784 0-105.45037784 47.21289725-105.45037783 105.45037783L147.95458726 700.28866883c0 58.23500784 47.21454519 105.45037784 105.45037784 105.45037783l316.34866077 0c35.29843863 0.55370105 49.32635422-0.76381045 52.72518851-0.76381046L622.4788152 805.73904666l210.89581182-210.89828375c0-38.72775916 0-44.49959829 0-52.72518851l0-199.76658618c0 0-5.56584878-15.99718029-24.90006609-15.99718029C786.67670402 326.35180792000006 780.64943769 342.34898823000003 780.64943769 342.34898823000003zM622.47799122 753.01385815c0-62.76925937 0-105.45037784 0-105.45037783 0-29.12862717 23.61880783-52.72271658 52.72518852-52.72271659l105.44625796 0L622.47799122 753.01385815zM509.62515816 299.60277657999995L332.49027635 299.60277657999995c-14.5511304 0-26.36259467 11.80734439-26.36259466 26.36259466 0 14.5511304 11.81146426 26.36259467 26.36259466 26.36259468l177.13405783 0c14.5511304 0 26.36259467-11.81146426 26.36259467-26.36259468C535.98775283 311.41012097 524.17628855 299.60277657999995 509.62515816 299.60277657999995zM648.84058506 457.77751895L332.49027635 457.77751895c-14.5511304 0-26.36259467 11.80734439-26.36259466 26.35847479 0 14.55525027 11.81146426 26.36671454 26.36259466 26.36671454l316.35030871 0c14.5511304 0 26.36259467-11.81146426 26.36259468-26.36671454C675.20317974 469.58486333 663.39171547 457.77751895 648.84058506 457.77751895zM868.23801447 140.33694680999997c0-98.42167089-79.77513044-178.19680133-178.19680132-178.19680133-98.40901465 0-178.18414508 79.77513044-178.18414509 178.19680133 0 98.40901465 79.77513044 178.18414508 178.18414509 178.18414508C788.46288405 318.52531064000004 868.23801447 238.74596144999998 868.23801447 140.33694680999997zM801.63780382 146.33590137c0 16.24189581-13.15382603 29.39994141-29.39994141 29.3999414l-164.38486185 0c-16.24611456 0-29.39994141-13.15804478-29.39994141-29.39994141l0 0c0-16.23767707 13.15382603-29.40415933 29.39994141-29.40415932l164.38486185 0C788.48397698 116.93174122000005 801.63780382 130.09822430999998 801.63780382 146.33590137L801.63780382 146.33590137zM518.08804975-42.07852953999998M833.37488988 331.97444422"  horiz-adv-x="1024" />

    
    <glyph glyph-name="empty-car" unicode="&#58882;" d="M306.35 13.200000000000045a56.7 56.7 0 1 1 113.4 0 56.7 56.7 0 1 1-113.4 0ZM888.2 333.6l43.2 231.75c2.25 12.6-5.85 24.75-18.45 27s-24.75-5.85-27-18.45l-43.2-231.75c-5.4-28.35-28.8-49.5-57.6-51.75L324.35 253.5c-28.8 181.8-50.4 311.85-64.8 391.95L251 691.8c-4.5 24.3-8.1 40.05-10.35 47.7-18.45 62.55-116.1 44.1-126.9 41.85-12.6-2.7-20.7-14.85-18-27.45s14.85-20.7 27.45-18c27.9 5.85 69.3 4.5 73.35-9.45 8.55-28.35 38.7-207.9 90.45-532.8 7.2-45.45 45.45-78.3 91.35-78.3l474.75-1.8c12.6 0 22.95 10.35 22.95 22.95s-10.35 22.95-22.95 23.4l-474.75 1.8c-22.95 0-42.3 16.65-45.9 39.6-0.45 2.25-0.45 4.5-0.9 6.75l457.2 36.45c49.5 3.6 90.45 40.5 99.45 89.1zM727.55 13.200000000000045a56.7 56.7 0 1 1 113.4 0 56.7 56.7 0 1 1-113.4 0ZM454.4 454.2l-62.55-86.4h53.55c5.85 0 10.8-4.95 10.8-10.8 0-5.85-4.95-10.8-10.8-10.8H366.65c-6.3 0-10.8 4.95-10.8 10.8 0 2.25 0.9 4.5 2.25 6.75l63.45 85.95h-49.5c-5.85 0-10.8 4.95-10.8 10.8 0 5.85 4.95 10.8 10.8 10.8h73.8c6.3 0 10.8-4.95 10.8-10.8-0.45-2.25-0.9-4.5-2.25-6.3zM624.05 596.85L561.5 510.45h53.55c5.85 0 10.8-4.95 10.8-10.8 0-5.85-4.95-10.8-10.8-10.8h-78.75c-6.3 0-10.8 4.95-10.8 10.8v0.45c0 2.25 0.9 4.5 2.25 6.75l63.45 85.95h-49.5c-5.85 0-10.8 4.95-10.8 10.8 0 5.85 4.95 10.8 10.8 10.8H615.5c6.3 0 10.8-4.95 10.8-10.8-0.45-2.7-0.9-4.95-2.25-6.75zM823.4 731.4l-90.45-126h77.4c9 0 15.75-7.2 15.75-15.75 0-9-7.2-15.75-15.75-15.75h-114.3c-9 0-16.2 7.2-16.2 16.2v0.45c0 3.6 0.9 6.75 3.15 9.45l92.25 125.1h-72.45c-9 0-15.75 7.2-15.75 15.75 0 9 7.2 15.75 15.75 15.75h107.55c9 0 16.2-7.2 16.2-16.2 0-3.15-0.9-6.3-3.15-9z"  horiz-adv-x="1024" />

    
    <glyph glyph-name="empty-order" unicode="&#58937;" d="M888.02900791 261.51862030999996V647.72010937c0 51.27400987-41.6307331 92.90474297-92.90474297 92.90474385h-95.13916083L637.18620136 685.82281435c-7.29125859-6.35045097-16.58173271-9.87847911-26.34261063-9.87847909H419.03645645c-9.64327676 0-19.05135205 3.52802813-26.34261065 9.87847909l-62.79890273 54.80203888h-95.13916085c-51.27400987 0-92.90474297-41.6307331-92.90474384-92.90474385v-590.94472676c0-51.27400987 41.6307331-92.90474297 92.90474385-92.90474385H678.2289295c27.51861973-16.69933388 59.85887872-26.34261065 94.31595527-26.34261064 100.66640537 0 182.51666016 81.85025479 182.51666015 182.51666015 0 57.03645586-26.10740918 107.95766396-67.03253701 141.47393203zM234.75578223 17.026263859999972v-0.11760029c-21.99137607 0-39.98432021 17.99294414-39.98432022 39.98431934V647.72010937c0 21.99137607 17.99294414 39.98432021 39.98432021 39.98432022H310.13798487l47.8635829-41.74833428c16.93453536-14.81771865 38.57310879-22.93218369 61.15248984-22.93218281h191.80713429c22.46177989 0 44.21795362 8.11446503 61.15248896 22.93218281l47.86358291 41.74833428h75.38220352c21.99137607 0 39.98432021-17.99294414 39.98431933-39.98432021v-356.09564795c-19.52175586 7.17365742-40.57232432 11.05448818-62.56370039 11.05448818-100.66640537 0-182.51666016-81.85025479-182.51666016-182.51666016 0-38.33790645 11.87769463-73.85339092 32.10505664-103.25362588H234.75578223z m653.27322568 44.10035333c-10.11368057-19.7569582-25.16660156-36.57389239-43.51234746-48.9219917-20.69776583-13.5241084-45.39396357-21.63857344-71.97177568-21.63857256-29.40023496 0-56.44845175 9.76087793-78.20462637 26.34261064-31.16424903 23.63778896-51.39161104 61.15248896-51.39161103 103.25362588 0 71.50137188 58.09486464 129.59623653 129.5962374 129.59623653 22.69698135 0 43.98275214-5.88004717 62.56370039-16.1113289 9.64327676-5.29204219 18.46334795-11.87769463 26.46021181-19.40415469 10.70168555-10.11368057 19.63935703-21.99137607 26.46021094-35.28028301 9.05527266-17.64014151 14.1121125-37.74990234 14.11211338-58.9180711s-5.05684073-41.1603293-14.11211338-58.91807109zM348.82869482 471.5539002h310.4664838c14.58251631 0 26.46021182 11.87769463 26.46021181 26.46021181s-11.87769463 26.46021182-26.46021181 26.46021182h-310.4664838c-14.58251631 0-26.46021182-11.87769463-26.46021181-26.46021182 0-14.46491602 11.87769463-26.46021182 26.46021181-26.46021182zM348.82869482 326.19913740000004h310.4664838c14.58251631 0 26.46021182 11.87769463 26.46021181 26.46021182s-11.87769463 26.46021182-26.46021181 26.46021182h-310.4664838c-14.58251631 0-26.46021182-11.87769463-26.46021181-26.46021182s11.87769463-26.46021182 26.46021181-26.46021182zM387.0490001 750.03292852h255.78204697c17.87534297 0 32.34025898 14.46491602 32.34025811 32.3402581s-14.46491602 32.34025898-32.34025811 32.34025898H387.0490001c-17.87534297 0-32.34025898-14.46491602-32.34025811-32.34025898 0-17.7577418 14.46491602-32.34025898 32.34025811-32.3402581zM495.24186552 233.88239941999996H348.82869482c-14.58251631 0-26.46021182-11.87769463-26.46021181-26.46021182s11.87769463-26.46021182 26.46021181-26.46021182h146.4131707c14.58251631 0 26.46021182 11.87769463 26.46021182 26.46021182s-11.87769463 26.46021182-26.46021181 26.46021182zM772.54488477 92.17326503000004c14.58251631 0 26.46021182 11.87769463 26.46021093 26.46021182v76.44061143c0 14.58251631-11.87769463 26.46021182-26.46021093 26.46021182s-26.46021182-11.87769463-26.46021182-26.46021182v-76.44061143c0-14.70011748 11.87769463-26.46021182 26.46021182-26.46021181zM772.54488477 49.24892167999997m-30.22344229 0a30.22344141 30.22344141 0 1 1 60.44688369 0 30.22344141 30.22344141 0 1 1-60.44688369 0Z"  horiz-adv-x="1024" />

    
    <glyph glyph-name="empty-address" unicode="&#58950;" d="M512.97317422-66C342.99056533-66 159.821-26.63478223000004 159.821 59.60869599c0 60.65217422 87.57391289 92.03478222 160.00434756 107.53043467 12.05217422 2.34782578 23.55652178-6.49565244 25.82608711-19.76087021 2.30869599-13.30434756-5.47826045-26.17826045-17.45217422-28.91739112-93.6-19.44782578-124.78695645-48.20869599-124.78695644-58.38260888 0-22.57826045 104.79130401-76.10869599 307.95652177-76.10869512 203.20434756 0 307.95652177 53.1 307.95652178 76.10869512 0 10.60434756-32.75217422 39.79565244-129.52173868 59.71304356-12.13043467 2.46521778-20.23043467 15.33913066-18 28.76087021 2.38695644 13.30434756 13.89130401 22.06956533 25.98260889 19.91739111 75.99130401-15.49565244 166.38260888-46.44782578 166.38260801-108.39130488C865.73404355-26.63478223000004 682.99491289-66 512.97317422-66zM512.19056533 12.26086934a28.44782578 28.44782578 0 0 0-23.43913066 11.85652178l-199.95652178 288.39130487A302.08695645 302.08695645 0 0 0 291.29926045 744.78260888C413.34708711 863.73913066 610.60360888 863.73913066 732.69056533 744.78260888a302.08695645 302.08695645 0 0 0 2.42608711-432.35217421l-199.95652177-288.35217422a28.44782578 28.44782578 0 0 0-23.008696-11.8565209z m0 766.17391288C408.221 778.74782578 314.30795645 717.54782578 274.47317422 623.47826045a247.38260888 247.38260888 0 0 1 55.95652177-274.22608623l3.24782578-3.91304356 178.12173868-256.7347831 178.12173955 256.69565244 3.24782578 3.95217422a247.38260888 247.38260888 0 0 1 56.11304356 273.87391289C709.60360888 717.11739112 616.04273955 778.43478223 512.19056533 778.43478223zM511.99491289 403.56521777c-63.31304355 0-120.36521777 33.37826045-144.58695644 84.52173868-24.26086933 51.18260888-10.83913067 110.11304355 33.9260871 149.28260888 44.76521778 39.13043467 112.06956533 50.86956533 170.56956533 29.66086934C630.36447822 645.86086933 668.51665244 595.9304346700001 668.51665244 540.52173955c0-75.63913067-70.04347823-136.95652177-156.52173955-136.95652177z m0 221.59565157c-39.13043467 0-74.42608711-20.62173955-89.37391289-52.23912979-14.98695644-31.65652177-6.69130401-68.08695644 20.97391289-92.26956533 27.66521778-24.22173955 69.26086933-31.46086934 105.41739112-18.35217422 36.15652178 13.10869599 59.75217422 43.98260888 59.75217421 78.22173955 0 22.46086934-10.17391289 43.98260888-28.36956533 59.86956446A104.16521778 104.16521778 0 0 1 511.99491289 625.16086934z"  horiz-adv-x="1024" />

    
    <glyph glyph-name="empty-message" unicode="&#59049;" d="M512 87.36914062000005c-25.3125 0-49.83398438 2.37304688-73.95996094 6.32812501L264.80761719-11.5078125V163.70214843999997C174.63183594 226.98339843999997 116.4921875 324.27832031 116.4921875 433.43847656 116.4921875 624.46875 293.6796875 779.5078125 512 779.5078125s395.5078125-155.0390625 395.5078125-346.06933594-177.1875-346.06933594-395.5078125-346.06933594z m0 642.70019532C320.96972656 730.06933594 165.93066406 597.17871094 165.93066406 433.43847656c0-100.45898438 58.53515625-189.05273438 147.52441406-242.84179687l-1.58203125-114.69726563 116.27929688 70.00488282C455.046875 140.3671875 482.73242187 136.80761718999997 511.60449219 136.80761718999997c191.03027344 0 346.06933594 132.890625 346.06933594 296.63085937C858.06933594 597.17871094 703.03027344 730.06933594 512 730.06933594z m197.75390625-346.06933594c-27.29003906 0-49.43847656 22.1484375-49.43847656 49.43847656s22.1484375 49.43847656 49.43847656 49.43847656 49.43847656-22.1484375 49.43847656-49.43847656-22.1484375-49.43847656-49.43847656-49.43847656z m-197.75390625 0c-27.29003906 0-49.43847656 22.1484375-49.43847656 49.43847656s22.1484375 49.43847656 49.43847656 49.43847656 49.43847656-22.1484375 49.43847656-49.43847656-22.1484375-49.43847656-49.43847656-49.43847656z m-197.75390625 0c-27.29003906 0-49.43847656 22.1484375-49.43847656 49.43847656s22.1484375 49.43847656 49.43847656 49.43847656 49.43847656-22.1484375 49.43847656-49.43847656-22.1484375-49.43847656-49.43847656-49.43847656z m0 0"  horiz-adv-x="1024" />

    
    <glyph glyph-name="empty-search" unicode="&#58980;" d="M442.88333333 42.450000000000045H211.58333333c-9.9 0-21.15 1.35-28.35 10.35-3.6 4.5-6.3 19.35-6.3 29.7V745.35c0.45 2.25 2.25 18 11.25 27 12.6 12.6 22.5 14.85 24.3 15.3h357.75v-95.85c0-4.95 0.45-37.35 18.9-58.95 17.1-19.8 44.55-29.7 47.25-31.05l4.05-1.35h126.45v-114.3l40.05-31.05c2.25-2.25 4.5-4.95 6.75-7.2V653.55L608.93333333 834H211.58333333c-4.5 0-28.8-1.35-56.25-28.8-22.5-22.5-24.75-54.45-24.75-58.05v-664.2c0-6.75 0.45-39.15 15.75-58.95 9.45-12.15 22.95-21.15 38.25-25.2 11.7-3.15 22.05-3.15 27-3.15h315.45c-19.35 6.3-38.25 14.4-55.8 24.75l-28.35 22.05z m173.7 722.25l133.65-117.9h-101.7c-6.75 2.7-18.45 9-24.75 16.2-4.95 5.85-7.2 19.8-7.2 27.45V764.7z m308.7-766.35c14.4-14.4 14.4-38.25 0-52.65-7.2-6.75-16.65-10.8-26.55-10.8s-19.35 4.05-26.55 10.8l-115.2 115.2c-41.85-31.05-92.7-47.7-145.35-47.7-135.45 0-245.25 110.25-245.25 245.25s110.25 245.7 245.25 245.7c135.45 0 245.25-110.25 245.25-245.25 0-54.45-17.55-104.4-47.7-145.35l116.1-115.2z m-312.75 75.6c102.15 0 184.95 82.8 184.95 184.95s-82.8 184.95-184.95 184.95-184.95-82.8-184.95-184.95 82.8-184.95 184.95-184.95z"  horiz-adv-x="1024" />

    
    <glyph glyph-name="empty-favor" unicode="&#59004;" d="M347.69799486 643.76190946L224.12407805 763.07242172c-12.78301197 8.52372267-12.78301197 29.83251492 0 42.61346928 12.78095435 12.78404079 34.0887178 12.78404079 46.87172976 0l123.56774394-115.05019417c12.78918485-12.78095435 12.78918485-34.0887178 0-46.87172976-12.78301197-8.52578031-34.0825449-12.78301197-46.86555689-0.00205761m420.42477592 0c-12.78301197-12.78095435-34.0825449-8.52372267-46.8655569 0-12.78918485 12.78404079-12.78918485 34.09077542 0 46.87275856L844.82495783 805.68486215c12.78301197 12.78301197 34.09077542 12.78301197 46.87275857 0 12.78198316-12.78198316 12.78198316-34.0887178 0-42.61346923L768.12174195 643.76088064m-241.65396772 25.07116445l-3.01442456 171.74400965c-3.01339574 15.06697869 12.05358294 30.13395739 30.13189977 30.13395741 18.07625918 0 33.14323788-15.06492106 33.14323788-33.14323788l6.02164741-168.72855628c0.0072017-18.08140325-15.059777-33.14941076-33.14323788-33.14323787-15.06492106 3.01133812-33.13603617 15.0608058-33.13912262 33.13706497m490.05078136-440.8827391c0.10185256 1.33745799 0.10185256 2.67800242 0 4.01443162l-171.98372327 325.59900421a28.67304172 28.67304172 0 0 1-26.37364279 17.77996081h-129.79515411v-57.354314h108.01516509l149.05043396-267.67884263h-272.88258304c-14.58137855 0.10699663-26.91479887-10.75110463-28.66481124-25.22342891 0-47.49210452-38.50027152-85.99031841-85.9903184-85.99031841-47.49210452 0-85.99031841 38.49821389-85.99031839 85.99031841-1.75206997 14.47335311-14.0865191 25.33248321-28.66481126 25.22342891H170.35723794l149.0545492 267.67884263h369.19190428v57.354314h-386.39161405a28.65760952 28.65760952 0 0 1-30.95700848-17.7799608L99.27237445 232.53781572000003a27.03105485 27.03105485 0 0 1 0-5.73049307 27.26356678 27.26356678 0 0 1 0-5.16053023v-229.3123169a85.98723197 85.98723197 0 0 1 85.99134723-85.99031841h745.26554431a85.99237604 85.99237604 0 0 1 85.99237604 85.99031841v229.3123169a27.81295335 27.81295335 0 0 1-0.00205762 6.30354239zM319.41178714 517.98941745h370.85755389v57.35431398h-388.05829247m656.97994221-583.00719827a28.65863834 28.65863834 0 0 0-28.66275359-28.66378241H185.26269285c-15.83138737 0-28.66584002 12.83136623-28.66584003 28.66378241V192.98095236999995h264.85680627c18.72235428-59.43663319 73.83488287-99.86490186 136.15631008-99.86490185 62.31525431 0 117.43395582 40.42826867 136.15322365 99.86490185h265.42882676v-200.64441921z"  horiz-adv-x="1122" />

    
    <glyph glyph-name="empty-coupon" unicode="&#59010;" d="M924.90746762 223.86631403H933.67435559v-177.86840625A83.9632879 83.9632879 0 0 0 849.77132166-37.875H174.02803393A83.9632879 83.9632879 0 0 0 90.125 45.99790776999998v177.74789997h8.76688797a75.85918863 75.85918863 0 0 1 75.79893466 75.76880767A75.85918863 75.85918863 0 0 1 98.86176099 375.28342392H90.125V534.14184356A83.9632879 83.9632879 0 0 0 174.02803393 617.98462436h37.65845353l13.3461557 49.8296651c10.45398669 37.65845352 43.26203128 62.87455343 81.64352746 62.87455426 5.66383172 0 11.5084237-0.69291568 17.71453619-1.47621149l4.00685917-0.48202844 45.37090531-12.59298687 27.59611431 47.66053875C423.47762927 802.27003198 471.34905527 818.4179765599999 515.30400223 794.2864398199999L820.0964603 617.98462436h29.52422725a83.9632879 83.9632879 0 0 0 83.90303477-83.87290778v-158.85841965h-8.79701495c-20.45607193 0-39.58656647-7.83295807-53.80639811-22.14317066-14.15957849-14.15957849-21.99253657-33.4407063-21.84190328-53.44487676a75.88931561 75.88931561 0 0 1 75.82906164-75.79893549z m-46.42534149-177.56713889v130.84053003a130.65976977 130.65976977 0 0 0-84.86709 122.52554434 130.93091098 130.93091098 0 0 0 84.56582264 122.61592364V534.26235068a28.71080447 28.71080447 0 0 1-28.68067832 28.71080447H173.69663959a28.74093145 28.74093145 0 0 1-28.68067832-28.71080447v-112.01130368a131.14179822 131.14179822 0 0 0 0.3012682-245.08121484v-130.87065702c0-15.81655024 12.8340011-28.71080447 28.68067831-28.7108053h675.74328689a28.74093145 28.74093145 0 0 1 28.7108053 28.7108053h0.03012616z m-262.16308851 229.32491775h-84.17417513v-28.46979107h84.17417513c16.41908579 0 29.79536847-13.55704294 29.79536848-30.24726993a30.03638269 30.03638269 0 0 0-29.82549545-30.21714295h-84.14404816v-40.97239699a30.06650886 30.06650886 0 0 0-29.82549545-30.21714295 30.03638269 30.03638269 0 0 0-29.7652415 30.21714295v40.97239699H388.37995041a30.06650886 30.06650886 0 0 0-29.82549463 30.21714295 30.03638269 30.03638269 0 0 0 29.82549463 30.24726993h84.17417513v28.62042435H388.37995041a30.06650886 30.06650886 0 0 0-29.82549463 30.21714376 30.03638269 30.03638269 0 0 0 29.82549463 30.21714296h50.79372198L367.29121677 409.20615866a30.21714294 30.21714294 0 0 0 0 42.5691156 29.16270593 29.16270593 0 0 0 41.87619992-0.03012698l93.03144323-94.38714761 93.03144323 94.38714761a29.16270593 29.16270593 0 0 0 41.87620076 0c11.68918396-12.08083145 11.59880383-30.78955151-0.12050712-42.65949572l-71.88245563-72.96701963h50.79372116a30.24726993 30.24726993 0 0 0 0.4217753-60.46441205zM278.08587244 653.95597915l-9.33929654-35.67008743h256.46913144L314.29824146 675.10496594c-2.44026755 0.60253555-4.66964785 0.60253555-8.04384614 0.60253555a29.10245279 29.10245279 0 0 1-28.1383959-21.75152234h-0.03012698z m169.91494189 82.33644233l-19.88366336-35.09767887 257.46331366-69.11079373-198.95714071 115.05410679c-13.76793018 6.80864804-30.8196785 2.34988742-38.62250959-10.84563419z"  horiz-adv-x="1024" />

    
    <glyph glyph-name="empty-history" unicode="&#59012;" d="M804.06730732 805.875a64.90384634 64.90384634 0 0 0 64.44951993-57.31009634L868.97115366 740.97115366v-194.71153821a32.45192275 32.45192275 0 0 0-64.38461545-5.84134634L804.06730732 546.25961545V740.97115366H155.02884634v-713.94230732h291.41826911a32.45192275 32.45192275 0 0 0 5.84134634-64.38461545L446.44711545-37.875H155.02884634a64.90384634 64.90384634 0 0 0-64.4495191 57.31009634L90.125 27.028846339999973V740.97115366A64.90384634 64.90384634 0 0 0 147.43509634 805.42067275L155.02884634 805.875h649.03846098z m-64.90384553-324.5192309a259.61538455 259.61538455 0 1 0 0-519.2307691 259.61538455 259.61538455 0 0 0 0 519.2307691z m0-64.90384635a194.71153821 194.71153821 0 1 1 0-389.42307641 194.71153821 194.71153821 0 0 1 0 389.42307641z m-33.16586545-64.90384551c17.52403821 0 31.80288455-14.14903821 31.99759635-31.7379809L738.6442309 221.74038455000004H836.5192309a32.45192275 32.45192275 0 1 0-1e-8-64.90384634h-129.80769268a32.45192275 32.45192275 0 0 0-31.47836545 40.43509634l-0.71394186 122.53846179A31.47836545 31.47836545 0 0 0 705.7379809 351.54807725h0.25961544zM382.19230731 351.54807725a32.45192275 32.45192275 0 0 0 0-64.90384636h-129.80769186a32.45192275 32.45192275 0 0 0 0 64.90384636h129.80769186z m0 129.80769186a32.45192275 32.45192275 0 0 0 0-64.90384636h-129.80769186a32.45192275 32.45192275 0 0 0 0 64.90384635h129.80769186z m194.71153903 129.80769268a32.45192275 32.45192275 0 0 0 0-64.90384634h-324.51923089a32.45192275 32.45192275 0 0 0 0 64.90384634h324.51923089z"  horiz-adv-x="1102" />

    
    <glyph glyph-name="empty-permission" unicode="&#59014;" d="M518.11482742 619.02178037a128.86340362 128.86340362 0 0 1-28.43260048-255.47680899V214.43245809999996a28.22693731 28.22693731 0 0 1 27.4095545-27.20476933 28.43260137 28.43260137 0 0 1 28.43260136 28.22781621v149.31729755a128.65861846 128.65861846 0 0 1-28.2278162 254.24985674z m0-200.65857803a72.20474385 72.20474385 0 1 0 71.99995958 71.99995871 72.20474385 72.20474385 0 0 0-71.99995958-71.99995871z m0 0M866.04636884 716.99955615c-20.45477373 0-50.93258818 3.27216622-86.52299766 8.5904253A617.317033 617.317033 0 0 0 547.16002645 825.61297119 43.5673582 43.5673582 0 0 1 521.38699364 833.99949023h-8.38651816a43.77302227 43.77302227 0 0 1-25.97693906-8.38651904A617.317033 617.317033 0 0 0 254.86585574 725.58998144c-35.59128838-5.31738018-66.88648565-7.56737842-86.7277828-8.59042529A43.97692852 43.97692852 0 0 1 126.00157324 672.81696445v-311.11242187c0-43.97780742 20.45389482-103.90951143 61.36344138-168.7499042v-1.023046a709.97655058 709.97655058 0 0 1 144.40860969-174.06728438C395.79663515-36.95568075999995 459.81876708-66 515.86570809-66h1.22695226c56.86344404 0 120.88645489 29.04519815 185.11337196 83.8634291a717.54480879 717.54480879 0 0 1 144.20470343 173.86337813v1.22783115c39.06736084 64.84039277 60.34039541 124.97688193 60.3403954 168.7499042V672.81696445a44.18259258 44.18259258 0 0 1-42.13649972 44.18171279zM237.27367792 218.93157656999995l-2.45390449 3.88652168-2.65956855 4.09042704a286.36331396 286.36331396 0 0 0-45.61345108 122.7277626V659.31697237a624.06702949 624.06702949 0 0 1 79.77300205 11.04520781c75.68169521 11.65868437 179.79511289 38.24997802 250.77202558 99.20385087 70.9769127-61.36344141 175.09033037-87.54516563 250.56724044-99.20385087a632.04485713 632.04485713 0 0 1 80.38735752-10.84130245v-308.45373135a284.72679229 284.72679229 0 0 0-45.81823624-122.7277626 48.88649531 48.88649531 0 0 0-2.65956855-4.2952122 24.13650937 24.13650937 0 0 1-2.24999912-3.8865208l-2.65868966-4.29521309a728.18132607 728.18132607 0 0 0-75.2730038-100.63646631 12.27303984 12.27303984 0 0 1-1.63652255-1.63652255c-71.99995957-77.31733887-146.45382363-122.52209854-200.65857804-122.93166885S388.43316298 36.272988860000055 317.86494082 111.13642324l-3.06825997 2.65868965a729.40827833 729.40827833 0 0 0-73.63648125 98.38646807z m0-2e-8"  horiz-adv-x="1024" />

    
    <glyph glyph-name="empty-news" unicode="&#59015;" d="M816.68750019 571.50000037h-46.8750001V712.12499981a93.84375037 93.84375037 0 0 1-93.75000018 93.75000019H207.31249981a93.84375037 93.84375037 0 0 1-93.75000018-93.75000019v-656.24999962a93.84375037 93.84375037 0 0 1 93.75000018-93.75000019h609.37500038a93.84375037 93.84375037 0 0 1 93.75000018 93.75000019V477.75000019a93.84375037 93.84375037 0 0 1-93.75000018 93.75000018zM160.43749973 55.87500019000004V712.12499981c0 25.87500027 20.99999982 46.87500009 46.87500009 46.8750001h468.75000009c25.87500027 0 46.87500009-20.99999982 46.87500009-46.8750001v-703.12499972H207.31249981c-25.87500027 0-46.87500009 20.99999982-46.87500008 46.87500009z m703.12500054 0c0-25.87500027-20.99999982-46.87500009-46.87500009-46.8750001h-46.87500009V524.62500027h46.87500009c25.87500027 0 46.87500009-20.99999982 46.87500009-46.87500009v-421.87499999zM277.62500037 526.40624963c3.09375027 0 6.09375037 1.265625 8.29687472 3.51562528a12.09374973 12.09374973 0 0 1 3.42187509 8.4375V613.78124973l53.53124991-82.03124954a11.67187473 11.67187473 0 0 1 13.12500009-4.78125028 11.95312527 11.95312527 0 0 1 8.34374982 11.48437518v114.84375018A11.85937509 11.85937509 0 0 1 352.62500019 665.24999973a11.85937509 11.85937509 0 0 1-11.71874982-11.95312446v-75.37500054l-53.53125074 82.03125036a11.57812537 11.57812537 0 0 1-13.12499926 4.78125028 11.95312527 11.95312527 0 0 1-8.34375064-11.4375001v-114.89062527c0-3.18749963 1.21874991-6.23437482 3.42187508-8.48437509 2.20312519-2.25000027 5.15625018-3.51562527 8.29687556-3.51562528z m140.62499944 0h74.99999982c6.46875027 0 11.71874982 5.39062482 11.71875064 12.00000037a11.85937509 11.85937509 0 0 1-11.71875064 11.95312527H429.96874963v33.51562455H493.24999963c4.21875 0 8.06250009 2.25000027 10.125 5.95312509a12.18749991 12.18749991 0 0 1 0 12.00000036 11.71874982 11.71874982 0 0 1-10.125 5.9531251H429.96874963V641.34375H493.24999963c6.46875027 0 11.71874982 5.39062482 11.71875064 12.00000037A11.85937509 11.85937509 0 0 1 493.24999963 665.24999973H418.24999981a11.57812537 11.57812537 0 0 1-8.29687472-3.51562446 12.09374973 12.09374973 0 0 1-3.42187509-8.4375v-114.89062527c0-3.18749963 1.21874991-6.23437482 3.42187509-8.48437509 2.20312519-2.25000027 5.15625018-3.51562527 8.29687472-3.51562528z m137.1562501 0.0468751c5.34374973-0.46875009 10.31250037 2.81249973 12.1874999 7.9687499l28.78125019 82.96875055 28.78125018-82.96875055a11.71874982 11.71874982 0 0 1 11.06250019-7.9687499h1.12499972a11.85937509 11.85937509 0 0 1 10.49999991 10.21875018l16.40624991 114.84375018a11.95312527 11.95312527 0 0 1-9.93749964 13.59375018 11.90625018 11.90625018 0 0 1-13.31250046-10.125l-9.56249972-67.0312499-23.99999991 69.32812444c-3.375 9.51562463-18.75000037 9.51562463-22.12500037 1e-8l-23.9999999-69.28125019-9.56249973 67.03125074a12.00000037 12.00000037 0 0 1-13.31250045 10.0781249 11.95312527 11.95312527 0 0 1-9.89062455-13.59375018l16.40624991-114.84375018a11.85937509 11.85937509 0 0 1 10.45312482-10.21875018zM652.62500027 390.00000018h-374.9999999c-12.93749973 0-23.43749963-10.73437537-23.43750046-23.95312481 0-13.21875027 10.49999991-23.90624973 23.43750046-23.90625056h374.9999999c12.93749973 0 23.43749963 10.68750027 23.43749964 23.90625056a23.67187509 23.67187509 0 0 1-23.43749964 23.90624972z m0-119.71874981h-374.9999999c-12.93749973 0-23.43749963-10.68750027-23.43750046-23.90625056 0-13.21875027 10.49999991-23.90624973 23.43750046-23.90624972h374.9999999a23.34375027 23.34375027 0 0 1 20.2968751 11.90625018 24.37499982 24.37499982 0 0 1 0 23.95312482 23.34375027 23.34375027 0 0 1-20.2968751 11.95312528z m0-119.67187556h-374.9999999c-12.93749973 0-23.43749963-10.68750027-23.43750046-23.90624972 0-13.21875027 10.49999991-23.95312482 23.43750046-23.95312482h374.9999999a23.34375027 23.34375027 0 0 1 20.2968751 11.95312446 24.37499982 24.37499982 0 0 1 0 23.95312564 23.34375027 23.34375027 0 0 1-20.2968751 11.95312445z"  horiz-adv-x="1024" />

    
    <glyph glyph-name="empty-wifi" unicode="&#59016;" d="M555.968 112.928c-10.56 6.432-23.36 10.272-37.056 10.272s-26.464-3.808-37.376-10.432l0.32 0.192a78.688 78.688 0 0 1-0.32-133.248l0.32-0.192c10.624-6.496 23.456-10.368 37.184-10.368s26.592 3.84 37.504 10.528l-0.32-0.192a78.688 78.688 0 0 1 0.32 133.248l-0.32 0.192zM864.864 778.3679999999999c16.416-14.304 18.144-39.232 3.808-55.68L273.696 39.936000000000035a39.456 39.456 0 0 0-59.52 51.872L809.152 774.56a39.456 39.456 0 0 0 55.68 3.808zM677.952 261.72799999999995a259.008 259.008 0 0 1-125.216 51.072l-1.28 0.128-67.168-79.52a188.096 188.096 0 0 0 148.672-34.368l-0.48 0.352a37.568 37.568 0 0 1 50.272 3.872 38.496 38.496 0 0 1-4.704 58.368l-0.096 0.064zM519.232 682.1759999999999h1.76c52.864 0 104.16-6.816 153.024-19.616l-4.192 0.928 52.992 64.448c-61.216 20.16-131.68 31.776-204.864 31.776-94.912 0-185.28-19.552-267.232-54.848l4.384 1.696C176.64 673.088 109.344 628.8 51.424 574.592l0.384 0.352a38.208 38.208 0 0 1-1.792-54.816 37.824 37.824 0 0 1 53.024-1.472l-0.032-0.032A615.2 615.2 0 0 0 279.68 633.344l4.032 1.536c69.056 29.888 149.472 47.296 233.952 47.296h1.664-0.096zM985.44 574.944a692.992 692.992 0 0 1-125.888 93.376l-3.328 1.792-50.912-60.224a622.528 622.528 0 0 0 129.376-90.784l-0.48 0.448a37.824 37.824 0 0 1 52.992 1.792 38.176 38.176 0 0 1-1.792 53.6zM494.24 458.688l65.344 75.904c-13.248 0-26.816 1.792-40.352 1.792a468.832 468.832 0 0 1-314.24-120.832l0.416 0.384a38.208 38.208 0 0 1-1.792-54.816c6.912-7.168 16.576-11.584 27.296-11.584 9.632 0 18.432 3.584 25.152 9.536l-0.032-0.032a396.224 396.224 0 0 0 236.992 99.616l1.216 0.064zM708.672 496.928l-52.416-60.224a405.408 405.408 0 0 0 127.2-76.544l-0.416 0.352a38.08 38.08 0 0 1 50.656 56.864l-0.032 0.032a477.76 477.76 0 0 1-121.952 78.304l-3.04 1.216z"  horiz-adv-x="1024" />

    
    <glyph glyph-name="empty-list" unicode="&#59019;" d="M814.88461573 805.875v-346.15384607h-64.90384635V740.97115366H338.92307697a151.44230786 151.44230786 0 0 1-151.44230787-151.44230786v-540.86538428h237.98076938v-64.90384634H165.84615393a43.26923117 43.26923117 0 0 0-43.26923117 43.26923116V589.5288458C122.57692275 709.01682668 219.43509607 805.875 338.92307697 805.875h475.96153875zM295.6538458 589.5288458h346.15384689v-64.90384553H295.6538458zM295.6538458 438.08653875h173.07692303v-64.90384634H295.6538458zM685.07692303 394.81730759c119.48798089 0 216.3461542-96.85817332 216.34615421-216.34615339s-96.85817332-216.3461542-216.34615421-216.3461542-216.3461542 96.85817332-216.3461542 216.3461542 96.85817332 216.3461542 216.3461542 216.34615339z m0-64.90384635a151.44230786 151.44230786 0 1 1 0-302.8846149 151.44230786 151.44230786 0 0 1 0 302.88461491zM778.23557725 313.125L517.19230732 72.95913483000004 555.26923117 31.572115449999956l261.0432691 240.14423089z"  horiz-adv-x="1024" />

    
    <glyph glyph-name="arrow-left-double" unicode="&#59020;" d="M492.11589215 757.93169445a55.23363335 55.23363335 0 0 1-77.87942242-7.18037142l-276.16816418-331.40179753a55.23363335 55.23363335 0 0 1 0-70.14671425l266.77844702-331.40179752a55.23363335 55.23363335 0 0 1 43.08223368-20.43644461 55.23363335 55.23363335 0 0 1 43.08223368 90.03082208L251.84958894 384l247.44667592 296.6046088a55.23363335 55.23363335 0 0 1-7.18037271 77.32708565zM638.48501982 384l247.44667463 296.6046088a55.23363335 55.23363335 0 0 1-85.05979383 70.6990497l-276.16816548-331.40179753a55.23363335 55.23363335 0 0 1 0-70.14671295l266.77844701-331.40179753a55.23363335 55.23363335 0 0 1 43.08223368-20.43644462 55.23363335 55.23363335 0 0 1 43.08223368 90.03082211z"  horiz-adv-x="1024" />

    
    <glyph glyph-name="arrow-right-double" unicode="&#59021;" d="M886.4840312 418.79718875l-264.01676579 331.40179752a55.23363335 55.23363335 0 0 1-77.87942241 8.28504493 55.23363335 55.23363335 0 0 1-8.28504495-77.8794224L772.15041106 384l-247.44667592-296.6046088a55.23363335 55.23363335 0 0 1 7.18037271-77.8794224A55.23363335 55.23363335 0 0 1 567.23363335-2.6354308799999444a55.23363335 55.23363335 0 0 1 42.52989692 19.88410785l276.16816418 331.40179753a55.23363335 55.23363335 0 0 1 0.55233675 70.14671425zM235.83183582 750.19898627a55.23363335 55.23363335 0 0 1-88.92614986-69.59437747L385.51498018 384l-247.44667463-296.05227202a55.23363335 55.23363335 0 0 1 7.18037142-77.87942243A55.23363335 55.23363335 0 0 1 180.59820247-2.6354308799999444a55.23363335 55.23363335 0 0 1 42.52989691 19.88410785l276.16816548 331.40179753a55.23363335 55.23363335 0 0 1 0 70.14671425z"  horiz-adv-x="1024" />

    
    <glyph glyph-name="red-packet" unicode="&#59025;" d="M516.042332 501.22044934c-1.892155 0-3.78431001 0.17201401-5.67646599 0.51604201L154.640685 565.72574034c-15.13724199 2.75222599-26.318159 15.997312-26.31815899 31.478582L128.32252599 693.18819634c0 52.808332 43.003528 95.98387399 95.98387401 95.983874L799.86561399 789.17207034c52.808332 0 95.98387399-43.003528 95.98387401-95.983874l0-95.983874c0-15.48127001-11.008903-28.726356-26.146145-31.478582l-347.812531-63.98924901C519.82664201 501.39246335 517.934487 501.22044934 516.042332 501.22044934zM192.139761 623.86651034l323.730556-58.140769 315.817907 58.140769L831.688224 693.18819634c0 17.545439-14.277171 31.994625-31.994625 31.994625L224.13438601 725.18282134c-17.545439 0-31.994625-14.277171-31.99462501-31.994625C192.139761 693.18819634 192.139761 623.86651034 192.139761 623.86651034zM799.86561399-106.33338965999997L224.13438601-106.33338965999997c-52.808332 0-95.98387399 43.003528-95.98387401 95.983874L128.150512 469.22582434c0 17.717453 14.277171 31.994625 31.994625 31.994625s31.994625-14.277171 31.99462501-31.994625l0-479.747354c0-17.717453 14.277171-31.994625 31.99462499-31.994625L799.86561399-42.516154659999984c17.717453 0 31.994625 14.277171 31.99462501 31.994625L831.860239 469.22582434c0 17.717453 14.277171 31.994625 31.994625 31.994625 17.717453 0 31.994625-14.277171 31.994625-31.994625l0-479.747354C895.67747401-63.329861660000006 852.67394601-106.33338965999997 799.86561399-106.33338965999997zM607.725853 213.44084234000002c17.717453 0 31.994625 14.277171 31.99462501 31.99462499s-14.277171 31.994625-31.99462501 31.99462501l-51.77624699 0 76.03023699 73.27801101c12.729044 12.21300201 13.073072 32.510667 0.86007101 45.06769699-12.21300201 12.729044-32.510667 12.90105801-45.23971101 0.688056l-76.202251-73.622039-73.278011 73.105997c-12.55702999 12.55702999-32.854695 12.55702999-45.23971099 0-12.55702999-12.55702999-12.385016-32.510667 0-45.067697l73.966068-73.622039-51.08819101 0c-17.717453 0-31.994625-14.277171-31.99462499-31.994625s14.277171-31.994625 31.99462499-31.994625L479.919368 213.26882834000003l0-31.99462499-64.161263 0c-17.717453 0-31.994625-14.277171-31.994625-31.99462501 0-17.717453 14.277171-31.994625 31.994625-31.994625L479.919368 117.28495434000001l0-64.333277c0-17.717453 14.277171-31.994625 31.994625-31.994625 17.717453 0 31.994625 14.277171 31.99462499 31.994625l0 64.333277 63.81723501 0c17.717453 0 31.994625 14.277171 31.99462499 31.99462499 0 17.717453-14.277171 31.994625-31.99462499 31.99462501l-63.81723499 0L543.90861801 213.44084234000002 607.725853 213.44084234000002z"  horiz-adv-x="1024" />

    
    <glyph glyph-name="red-packet-fill" unicode="&#59024;" d="M784.595-66h-545.198c-66.907 0-121.147 53.729-121.147 120.007v600l363.462-120.007h60.571l363.467 120.007v-600c0-66.276-54.247-120.007-121.155-120.007v0zM543.761 235.89099999999996l87.921 0.21c22.02-0.21 29.864 11.1 30.269 24.732 0.339 11.826-10.94 34.11-30.802 34.643h-87.892v21c0 0 66.713 67.49 84.026 83.041 17.257 15.623 21.621 27.858 10.952 40.493-10.812 12.894-29.875 12.097-43.833 0.654-14.164-11.629-82.295-74.322-82.295-74.322 0 0-58.487 59.827-71.148 71.862-11.369 10.842-35.504 21.348-48.492 6.785-13.551-15.222-3.016-34.236 5.47-42.552 8.462-8.237 81.653-84.889 81.653-84.889l-0.133-23.064h-91.714c-13.557 0-25.534-23.892-25.103-36.587 0.436-12.631 10.704-22.537 25.073-22.537 14.363 0 91.441 0.529 91.441 0.529l-0.199-64.327h-94.997c-13.557 0-24.934-13.524-25.479-26.22-0.533-12.703 10.133-29.91 25.479-29.91h94.79c0 0-0.163-22.008 0.406-31.175 1.278-20.472 14.836-28.85 32.954-29.185 18.125-0.342 30.986 14.681 30.944 28.116-0.062 11.102-0.328 32.244-0.328 32.244 0 0 78.889 0.138 93.79 0 14.903-0.126 26.043 14.814 25.436 29.91-0.533 15.156-9.795 26.748-32.414 26.748h-86.28l0.503 63.8zM542.283 594.0070000000001h-60.571l-363.462 119.993c0 66.282 54.24 120 121.147 120h545.198c66.907 0 121.155-53.718 121.155-120l-363.467-119.993z"  horiz-adv-x="1024" />

    
    <glyph glyph-name="order" unicode="&#59023;" d="M819.06285687 753.0285715699999h-55.61142843c-15.42857156 0-33.18857156-21.94285688-33.18857157-37.30285687 0-15.36 17.82857156-43.2 33.18857157-43.2h30.72c33.12 0 55.61142844-22.49142844 55.61142843-55.61142938v-603.01714218c0-33.18857156-22.49142844-55.68-55.54285687-55.68h-549.25714312c-33.12 0-69.80571469 22.49142844-69.80571375 55.68V616.91428532c0 33.12 22.49142844 55.54285687 55.68 55.54285781h44.91428531c15.42857156 0 21.25714312 27.90857156 21.25714312 43.26857157 0 15.42857156-5.82857156 37.30285687-21.25714312 37.30285687H205.96571469c-78.17142844 0-111.29142844-61.02857156-111.29142938-124.86857156v-633.25714312c0-68.64 41.41714313-117.18857156 117.18857156-117.18857157h601.30285782c75.77142844 0 117.18857156 40.25142844 117.18857062 117.18857157V628.16000001c0 63.90857156-39.08571469 124.86857156-111.29142843 124.86857156z m-402.44571375-82.28571468H610.74285688c22.49142844 0 41.41714313 22.49142844 41.41714312 48.54857156 0 26.05714312-18.92571469 48.54857156-42.58285688 48.54857156H416.61714312c-23.65714313 0-42.58285688-22.49142844-42.58285781-48.54857156 0-26.05714312 18.92571469-48.54857156 42.58285782-48.54857156zM750.62857156 474.7657147c0-20.57142844-16.73142844-37.30285687-37.37142844-37.30285782h-403.19999999a37.30285687 37.30285687 0 1 0-1e-8 74.67428625h403.2c20.64 0 37.37142844-16.73142844 37.37142844-37.37142843zM750.62857156 320.48000001c0-20.57142844-16.73142844-37.30285687-37.37142844-37.30285687h-403.19999999a37.30285687 37.30285687 0 1 0-1e-8 74.67428531h403.2c20.64 0 37.37142844-16.73142844 37.37142844-37.37142844zM750.62857156 152.48000001000003c0-20.57142844-16.73142844-37.37142844-37.37142844-37.37142844h-403.19999999a37.30285687 37.30285687 0 1 0-1e-8 74.67428532h403.2c20.64 0 37.37142844-16.66285687 37.37142844-37.30285688z"  horiz-adv-x="1024" />

    
    <glyph glyph-name="nav-back-arrow" unicode="&#59007;" d="M885.85066667 371.39128889999995H215.60106667l216.85333333 216.85333333c13.33013333 13.33013333 13.33013333 34.94186667 0 48.272s-34.94186667 13.33013333-48.272 0L110.29013333 362.62435556c-13.33013333-13.33013333-13.33013333-34.94186667 0-48.27093333l273.89226667-273.89333333c6.6656-6.66453333 15.40053333-9.9968 24.13546667-9.9968s17.47093333 3.33226667 24.13546666 9.9968c13.33013333 13.33013333 13.33013333 34.94293333 0 48.272l-216.85333333 216.8544h670.25066667c18.17173333 0 32.9024 14.73066667 32.9024 32.9024s-14.73066667 32.9024-32.9024 32.9024z"  horiz-adv-x="1024" />

    
    <glyph glyph-name="nav-back" unicode="&#59011;" d="M694.5663333-8c8.189 0 16.379 3.124 22.628 9.372 12.496 12.497 12.496 32.759 0 45.256L379.8213333 384l337.373 337.373c12.496 12.497 12.496 32.758 0 45.255-12.498 12.497-32.758 12.497-45.256 0l-360-360c-12.496-12.497-12.496-32.758 0-45.255l360-360c6.249-6.249 14.439-9.373 22.628-9.373z"  horiz-adv-x="1024" />

    
    <glyph glyph-name="checkbox-mark" unicode="&#59048;" d="M151.29761065 402.3119838l210.43558564-167.64637763L885.73144854 717.39827482s35.17468242 32.09145644 65.85494149 7.03889385c9.13725088-7.55876074 19.68569825-28.91648847-4.08608437-62.36337657L400.43631992 21.18456993999996s-41.97163096-57.38596348-91.76285654 0.6313957L72.60968428 340.61687921s-28.02425977 43.14178213 7.02000614 69.0308086c11.83012646 8.67314795 38.72201133 22.19329248 71.66792023-7.335704z"  horiz-adv-x="1024" />

    
    <glyph glyph-name="arrow-up-fill" unicode="&#59056;" d="M46.04907267 163.94920643c-7.29083955-8.61644674-11.26766112-19.88410785-11.26766112-31.81457256 0-27.83775099 22.53532223-49.71026963 49.71026963-49.71026962h854.35383404c27.17494739 0 49.71026963 22.53532223 49.71026963 49.71026962 0 13.2560719-5.30242877 25.18653662-13.2560719 33.80298336l-424.85710444 499.75391067c-9.27925033 11.93046471-23.19812583 19.88410785-39.76821571 19.88410785-15.90728628 0-29.82616178-7.29083955-39.1054121-18.55850066l-425.51990803-503.06792866c0.66280359 0.66280359 0.66280359 0 0 0z"  horiz-adv-x="1024" />

    
    <glyph glyph-name="arrow-down-fill" unicode="&#58880;" d="M975.03732622 628.33398518L570.57462045 91.38175999999999c-28.11251675-37.32396563-89.0427923-37.32396563-117.15530904 0L48.95903289 628.33398518c-26.05784178 34.58965808 6.53782282 77.85312711 58.65957452 77.85312712h808.84167111c52.03922489 0 84.639744-43.25254637 58.5770477-77.85312712z"  horiz-adv-x="1024" />

    
    <glyph glyph-name="backspace" unicode="&#59003;" d="M648.37999971 227.20000000000005a39.71999971 39.71999971 0 0 0-28.08 67.79999971l240.42000058 240.42000058a39.66000029 39.66000029 0 0 0 56.16-56.10000058L676.40000029 238.83999971000003a39.6 39.6 0 0 0-28.02000058-11.63999971zM888.80000029 227.20000000000005a39.6 39.6 0 0 0-28.08 11.63999971L620.29999971 479.31999971a39.66000029 39.66000029 0 1 0 56.10000058 56.10000058l240.41999971-240.42000058a39.71999971 39.71999971 0 0 0-28.01999971-67.79999971zM1131.31999971-39.440000289999944H449.83999971c-39.30000029 0-76.20000029 17.28-101.39999942 47.40000029l-264.00000058 317.09999971a98.88000029 98.88000029 0 0 0-22.32 62.1 96.36000029 96.36000029 0 0 0 20.10000058 59.52000058L347.95999971 765.64000029A131.51999971 131.51999971 0 0 0 449.83999971 813.70000029h681.48a130.20000029 130.20000029 0 0 0 130.08000058-130.02000029v-593.03999971a130.20000029 130.20000029 0 0 0-130.08000058-130.08000058zM144.19999971 397.00000029a16.98000029 16.98000029 0 0 1-2.63999971-9.9c0-4.02000029 1.62-8.28 4.38000029-11.7l263.52-316.56000058a53.21999971 53.21999971 0 0 1 40.43999971-18.9h681.48a50.76 50.76 0 0 1 50.69999971 50.70000058V683.6800000000001a50.76 50.76 0 0 1-50.69999971 50.64000029H449.83999971a53.28 53.28 0 0 1-40.79999971-19.20000058L144.19999971 397.00000029z"  horiz-adv-x="1365" />

    
    <glyph glyph-name="android-circle-fill" unicode="&#59006;" d="M576.8 621.13333333m-18 0a18 18 0 1 1 36 0 18 18 0 1 1-36 0ZM515.6 831.73333333C270.8 831.73333333 71 631.93333333 71 385.33333333s199.8-446.4 446.4-446.4S962 138.73333333000005 962 385.33333333 762.2 831.73333333 515.6 831.73333333zM290.6 300.73333333000005c0-16.2-14.4-30.6-30.6-30.6H240.2c-16.2 0-30.6 14.4-30.6 30.6V504.13333333c0 16.2 14.4 30.6 30.6 30.6H260c16.2 0 30.6-14.4 30.6-30.6v-203.4z m421.2-97.2c0-9-9-16.2-18-16.2h-70.2v-113.4c0-16.2-14.4-30.6-30.6-30.6h-19.8c-16.2 0-30.6 14.4-30.6 30.6V187.33333332999996h-75.6v-113.4c0-16.2-14.4-30.6-30.6-30.6h-19.8c-16.2 0-30.6 14.4-30.6 30.6V187.33333332999996h-50.4c-10.8 0-18 7.2-18 16.2V532.93333333v1.8H710V203.53333333zM521 559.93333333H315.8c16.2 57.6 55.8 106.2 108 131.4l-43.2 66.6 5.4 5.4 52.2-64.8c21.6 9 43.2 14.4 68.4 16.2h14.4c23.4-1.8 45-7.2 64.8-14.4l54 66.6 5.4-5.4-45-68.4c54-27 95.4-73.8 111.6-133.2H521z m300.6-259.2c0-16.2-14.4-30.6-30.6-30.6h-19.8c-16.2 0-30.6 14.4-30.6 30.6V504.13333333c0 16.2 14.4 30.6 30.6 30.6h19.8c16.2 0 30.6-14.4 30.6-30.6v-203.4zM450.8 621.13333333m-18 0a18 18 0 1 1 36 0 18 18 0 1 1-36 0Z"  horiz-adv-x="1024" />

    
    <glyph glyph-name="android-fill" unicode="&#59005;" d="M850.0736 556.0319999999999c-30.9248 0-56.064-25.4976-56.064-56.9856V276.48c0-31.3856 25.088-56.9344 56.064-56.9344s56.064 25.4464 56.064 56.9344V499.0464c0 31.488-24.9856 56.9856-56.064 56.9856z m-676.1472 0c-30.976 0-56.064-25.4976-56.064-56.9856V276.48c0-31.3856 25.088-56.9344 56.064-56.9344 30.9248 0 56.064 25.4464 56.064 56.9344V499.0464c0 31.488-25.088 56.9856-56.064 56.9856z m89.8048-1.7408v-406.528c0-24.1664 19.6096-43.776 43.7248-43.776h49.92v-123.8016c0-31.4368 25.088-56.9856 56.064-56.9856s56.064 25.4464 56.064 56.9856v123.904h87.296v-123.8528c0-31.3856 25.088-56.9344 56.064-56.9344s56.064 25.4464 56.064 56.9344v123.8528h49.9712a43.776 43.776 0 0 1 43.7248 43.7248v406.528H263.7312z m366.5408 210.688l46.08 66.8672c2.6624 3.9424 2.048 9.216-1.536 11.6736-3.584 2.4576-8.704 1.28-11.4688-2.6624l-47.872-69.632A282.2656 282.2656 0 0 1 512 790.6816c-36.864 0-71.9872-6.912-103.4752-19.3536L360.6528 840.704c-2.7136 3.9424-7.8336 5.2224-11.4688 2.7136-3.584-2.4576-4.1984-7.68-1.536-11.7248l46.08-66.8672c-73.216-34.0992-124.6208-98.816-131.1744-174.3872h498.8928C754.8928 666.112 703.488 730.88 630.272 764.928zM406.784 659.456a27.648 27.648 0 1 0 0 55.296 27.648 27.648 0 0 0 0-55.296z m213.9136 0a27.648 27.648 0 1 0 0 55.296 27.648 27.648 0 0 0 0-55.296z"  horiz-adv-x="1024" />

    
    <glyph glyph-name="question" unicode="&#59157;" d="M501.86666667-65.33333332999996c-36.20906667 0-65.6 29.39093333-65.6 65.59999999s29.39093333 65.6 65.6 65.60000001 65.6-29.39093333 65.6-65.60000001-29.39093333-65.6-65.6-65.59999999zM783.64906667 573.5264c-3.78666667-70.17813333-25.2896-125.50186667-132.80746667-233.11893333-54.51733333-54.56533333-88.8928-95.49013333-92.37546667-131.41333334-2.72533333-28.192-26.50133333-49.2608-54.21333333-49.2608-1.8176 0-3.63413333 0.15146667-5.45066667 0.30293334-29.984 2.88-51.792 29.7088-48.91413333 59.71946666 7.41973333 75.6352 62.8448 136.71893333 123.87306667 197.80266666 97.67466667 97.76426667 99.3408 128.83626667 101.00693333 161.72800001 1.968 38.34773333-12.1152 75.48266667-39.97866667 104.736-31.65013333 33.34613333-76.47466667 52.4448-122.96533333 52.4448h-0.30186667c-89.49866667-0.15146667-162.4896-73.2096-162.4896-162.9408 0-30.1632-24.3808-54.5664-54.51626666-54.5664-30.13546667 0-54.51626667 24.4032-54.51626667 54.5664 0 72.60373333 28.1664 140.81066667 79.35146667 192.19413333S438.6816 845.44746667 511.2192 845.6c76.4736 0.15146667 150.37333333-31.376 202.61866667-86.39680001 48.7616-51.08053333 73.44533333-117.01333333 69.8112-185.67679999z"  horiz-adv-x="1024" />

    
    <glyph glyph-name="pause" unicode="&#59642;" d="M353.111247 826.459181l-4.732791 0c-45.573965 0-82.519412-36.945447-82.519412-82.519412L265.859044 24.75403300000005c0-45.573965 36.945447-82.519412 82.519412-82.519412l4.732791 0c45.573965 0 82.519412 36.945447 82.519412 82.519412L435.630658 743.9397690000001C435.630658 789.514757 398.686235 826.459181 353.111247 826.459181zM674.969699 826.459181l-4.732791 0c-45.573965 0-82.519412-36.945447-82.519412-82.519412L587.717496 24.75403300000005c0-45.573965 36.945447-82.519412 82.519412-82.519412l4.732791 0c45.573965 0 82.519412 36.945447 82.519412 82.519412L757.48911 743.9397690000001C757.48911 789.514757 720.543663 826.459181 674.969699 826.459181z"  horiz-adv-x="1024" />

    
    <glyph glyph-name="close" unicode="&#59013;" d="M574.74465185 384l337.38903704 337.38903703c21.72397037 21.72397037 21.72397037 56.79786667 0 78.40047408-21.72397037 21.72397037-56.79786667 21.72397037-78.40047407 0l-337.38903704-337.38903703L174.61096297 784.13368889c-21.72397037 21.72397037-56.79786667 21.72397037-78.40047408 0-21.72397037-21.72397037-21.72397037-56.79786667 0-78.40047407L417.82234075 384 96.21048889 62.266785180000056c-21.72397037-21.72397037-21.72397037-56.79786667 0-78.40047407 21.72397037-21.72397037 56.79786667-21.72397037 78.40047408 0l321.73321481 321.73321481 337.38903704-337.38903703c21.72397037-21.72397037 56.79786667-21.72397037 78.40047407 0 21.72397037 21.72397037 21.72397037 56.79786667 0 78.40047408L574.74465185 384z"  horiz-adv-x="1024" />

    
    <glyph glyph-name="volume-up" unicode="&#58931;" d="M763.20000031 529.2a40.00000031 40.00000031 0 1 1-62.4-50.4 160.00000031 160.00000031 0 0 0 0-189.6A40.00000031 40.00000031 0 0 1 732.00000031 223.99999968999998a40.00000031 40.00000031 0 0 1 31.2 14.80000031 240 240 0 0 1 0 290.4zM817.59999969 654.79999969a40.00000031 40.00000031 0 1 1-51.19999969-61.59999938A271.99999969 271.99999969 0 0 0 872 384a271.99999969 271.99999969 0 0 0-105.6-209.20000031 40.00000031 40.00000031 0 0 1-5.20000031-56.4A40.00000031 40.00000031 0 0 1 792.00000031 103.99999968999998a40.00000031 40.00000031 0 0 1 25.59999938 9.20000062A349.99999969 349.99999969 0 0 1 951.99999969 384a349.99999969 349.99999969 0 0 1-134.4 270.79999969zM632 739.2a40.00000031 40.00000031 0 0 1-40.00000031 0L332.79999969 561.19999969h-199.99999969a40.00000031 40.00000031 0 0 1-40.00000031-39.99999938v-274.40000062a40.00000031 40.00000031 0 0 1 40.00000031-39.99999938h199.99999969l256.40000062-176.00000062a42.40000031 42.40000031 0 0 1 22.8-6.79999969 40.00000031 40.00000031 0 0 1 39.99999938 40.00000031V703.99999969a40.00000031 40.00000031 0 0 1-19.99999969 35.20000031z m-58.8-600L368 280.00000031a40.00000031 40.00000031 0 0 1-22.8 6.79999969H171.99999969V481.2h173.20000031a40.00000031 40.00000031 0 0 1 22.8 6.79999969l204 140.00000062z"  horiz-adv-x="1024" />

    
    <glyph glyph-name="volume-off" unicode="&#58948;" d="M220.4 736.40000031a40.00000031 40.00000031 0 0 1-56.80000031-56.80000031l640.00000031-640.00000031a40.00000031 40.00000031 0 0 1 56.80000031 0 40.00000031 40.00000031 0 0 1 0 56.80000031zM708.39999969 304.79999969000005l57.6-57.6a240 240 0 0 1-2.79999938 286.00000031 40.00000031 40.00000031 0 1 1-62.4-50.4 160.00000031 160.00000031 0 0 0 7.59999938-178.00000031zM872 388a260.4 260.4 0 0 0-71.20000031-175.60000031l56.80000031-56.79999938A341.20000031 341.20000031 0 0 1 951.99999969 388a349.99999969 349.99999969 0 0 1-134.4 270.79999969 40.00000031 40.00000031 0 1 1-51.19999969-61.59999938A271.99999969 271.99999969 0 0 0 872 388zM572 143.99999968999998l-204 140.00000062a40.00000031 40.00000031 0 0 1-22.8 6.79999969H171.99999969V485.2h129.6l-79.99999969 79.99999969H132.00000031a40.00000031 40.00000031 0 0 1-40.00000031-39.99999938v-274.40000062a40.00000031 40.00000031 0 0 1 40.00000031-39.99999938h199.99999969l256.39999969-176.00000062a42.40000031 42.40000031 0 0 1 22.8-6.79999969 40.00000031 40.00000031 0 0 1 40.00000031 40.00000031v66.79999969l-79.99999969 79.99999969zM572 632.00000031v-190.8l79.99999969-80.00000062V707.99999969a40.00000031 40.00000031 0 0 1-62.79999938 33.20000062L401.19999969 611.99999969l57.6-57.6z"  horiz-adv-x="1024" />

    
    <glyph glyph-name="info" unicode="&#58963;" d="M512 675.27111111c41.26340779 0 72.81777778 31.55436999 72.81777778 72.81777778s-31.55436999 72.81777778-72.81777778 72.81777778-72.81777778-31.55436999-72.81777778-72.81777778S470.73659221 675.27111111 512 675.27111111zM512 578.18074112c-41.26340779 0-72.81777778-31.55436999-72.81777778-72.81777778l0-485.45185223c0-41.26340779 31.55436999-72.81777778 72.81777778-72.81777778s72.81777778 31.55436999 72.81777778 72.81777778L584.81777778 505.36296334C584.81777778 546.6263699900001 553.26340779 578.18074112 512 578.18074112z"  horiz-adv-x="1024" />

    
    <glyph glyph-name="error" unicode="&#59091;" d="M556.783 314.116c-3.72-28.52-7.798-55.519-12.256-81.01-3.719-18.753-14.115-28.119-31.188-28.119-16.354 0-26.74 9.366-31.198 28.119-4.458 25.491-8.547 52.49-12.255 81.01-11.146 101.992-19.693 183.386-25.631 244.143-8.177 83.994-12.25 136.874-12.25 158.64 0 36.742 6.303 64.131 18.938 82.129 12.625 21.747 33.427 32.628 62.397 32.628 28.22 0 49.021-10.881 62.387-32.628 12.625-17.999 18.942-45.387 18.942-82.129 0-21.006-4.089-73.886-12.255-158.64-4.46-57.008-13.006-138.383-25.631-244.143zM445.374 78.97400000000005c17.074 25.491 40.105 38.246 69.074 38.246 28.219 0 49.022-9.386 62.396-28.129 12.615-15.745 18.933-35.997 18.933-60.747 0-28.521-8.546-51.371-25.619-68.624-16.345-15.755-33.809-23.632-52.371-23.632-22.282 0-42.334 7.497-60.158 22.491-17.833 15.755-26.74 37.137-26.74 64.137 0.001 23.241 4.819 42.005 14.485 56.258z"  horiz-adv-x="1024" />

    
    <glyph glyph-name="lock-opened-fill" unicode="&#59764;" d="M785.06666667 475.02222187H329.9555552V566.0444448000001a182.0444448 182.0444448 0 0 0 364.0888896 0h91.02222187A273.06666667 273.06666667 0 0 1 238.93333333 566.0444448000001v-91.02222293a91.02222187 91.02222187 0 0 1-91.02222186-91.02222187v-364.08888853a91.02222187 91.02222187 0 0 1 91.02222186-91.02222294h546.13333334a91.02222187 91.02222187 0 0 1 91.02222186 91.02222294v364.08888853a91.02222187 91.02222187 0 0 1-91.02222186 91.02222187z m-182.0444448-318.57777707a45.51111147 45.51111147 0 0 0-45.5111104-45.51111147h-91.02222294a45.51111147 45.51111147 0 0 0-45.5111104 45.51111147v91.02222187a45.51111147 45.51111147 0 0 0 45.5111104 45.51111146h91.02222294a45.51111147 45.51111147 0 0 0 45.5111104-45.51111146z"  horiz-adv-x="1024" />

    
    <glyph glyph-name="lock-fill" unicode="&#59769;" d="M785.06666667 475.02222187V566.0444448000001A273.06666667 273.06666667 0 0 1 238.93333333 566.0444448000001v-91.02222293a91.02222187 91.02222187 0 0 1-91.02222186-91.02222187v-364.08888853a91.02222187 91.02222187 0 0 1 91.02222186-91.02222294h546.13333334a91.02222187 91.02222187 0 0 1 91.02222186 91.02222294v364.08888853a91.02222187 91.02222187 0 0 1-91.02222186 91.02222187zM329.9555552 566.0444448000001a182.0444448 182.0444448 0 0 0 364.0888896 0v-91.02222293H329.9555552z m273.06666667-409.6a45.51111147 45.51111147 0 0 0-45.5111104-45.51111147h-91.02222294a45.51111147 45.51111147 0 0 0-45.5111104 45.51111147v91.02222187a45.51111147 45.51111147 0 0 0 45.5111104 45.51111146h91.02222294a45.51111147 45.51111147 0 0 0 45.5111104-45.51111146z"  horiz-adv-x="1024" />

    
    <glyph glyph-name="lock" unicode="&#59770;" d="M785.06666667 384v-364.08888853H238.93333333v364.08888853zM512 839.11111147a273.06666667 273.06666667 0 0 1-273.06666667-273.06666667v-91.02222293a91.02222187 91.02222187 0 0 1-91.02222186-91.02222187v-364.08888853a91.02222187 91.02222187 0 0 1 91.02222186-91.02222294h546.13333334a91.02222187 91.02222187 0 0 1 91.02222186 91.02222294v364.08888853a91.02222187 91.02222187 0 0 1-91.02222186 91.02222187V566.0444448000001a273.06666667 273.06666667 0 0 1-273.06666667 273.06666667z m-182.0444448-364.0888896V566.0444448000001a182.0444448 182.0444448 0 0 0 364.0888896 0v-91.02222293zM420.97777813 292.97777813000005m45.5111104 0l91.02222294 0q45.51111147 0 45.5111104-45.51111146l0-91.02222187q0-45.51111147-45.5111104-45.51111147l-91.02222294 0q-45.51111147 0-45.5111104 45.51111147l0 91.02222187q0 45.51111147 45.5111104 45.51111146Z"  horiz-adv-x="1024" />

    
    <glyph glyph-name="photo-fill" unicode="&#59787;" d="M967.11111147 659.73333333a91.02222187 91.02222187 0 0 1-91.02222294 91.02222187H147.91111147a91.02222187 91.02222187 0 0 1-91.02222294-91.02222187v-546.13333333a91.02222187 91.02222187 0 0 1 91.02222294-91.02222186h728.17777706a91.02222187 91.02222187 0 0 1 91.02222294 91.02222186zM398.22222187 614.22222187A68.26666667 68.26666667 0 1 0 329.9555552 545.9555551999999 68.26666667 68.26666667 0 0 0 398.22222187 614.22222187z m432.35555626-432.3555552a22.7555552 22.7555552 0 0 0-22.75555626-22.75555521h-591.64444374a22.7555552 22.7555552 0 0 0-22.75555626 22.75555521v15.47377813a20.93511147 20.93511147 0 0 0 5.00622293 13.65333334L329.9555552 378.01955519a23.66577813 23.66577813 0 0 0 15.9288896 8.64711148 22.7555552 22.7555552 0 0 0 17.74933333-8.192l65.9911104-79.64444481a22.3004448 22.3004448 0 0 1 17.29422294-8.19199999 23.21066667 23.21066667 0 0 1 18.20444373 9.10222292l131.072 169.30133335a23.21066667 23.21066667 0 0 0 36.4088896 0l193.42222187-258.048a23.21066667 23.21066667 0 0 0 4.55111146-13.65333334z"  horiz-adv-x="1024" />

    
    <glyph glyph-name="photo" unicode="&#59789;" d="M876.08888853 752.08888853H147.91111147a91.02222187 91.02222187 0 0 1-91.02222294-91.02222187v-546.13333333a91.02222187 91.02222187 0 0 1 91.02222294-91.02222186h728.17777706a91.02222187 91.02222187 0 0 1 91.02222294 91.02222186V661.06666666a91.02222187 91.02222187 0 0 1-91.02222294 91.02222187z m0-583.9075552a22.3004448 22.3004448 0 0 0-22.7555552-22.7555552 21.84533333 21.84533333 0 0 0-18.2044448 9.10222187l-202.52444373 269.88088853a23.21066667 23.21066667 0 0 1-36.4088896 0L466.48888853 255.56266667a23.21066667 23.21066667 0 0 0-18.20444373-9.10222187 22.3004448 22.3004448 0 0 0-17.29422293 8.192l-67.35644374 79.64444373a22.7555552 22.7555552 0 0 1-17.74933333 8.192 23.66577813 23.66577813 0 0 1-17.74933333-8.6471104l-139.71911147-179.31377813a21.84533333 21.84533333 0 0 0-17.74933333-8.64711147 22.3004448 22.3004448 0 0 0-22.7555552 22.75555627V661.06666666h728.17777706zM329.9555552 501.77777813A68.26666667 68.26666667 0 1 0 398.22222187 433.51111147 68.26666667 68.26666667 0 0 0 329.9555552 501.77777813z"  horiz-adv-x="1024" />

    
    <glyph glyph-name="account-fill" unicode="&#58900;" d="M512 798.25224651a207.12612386 207.12612386 0 0 0 207.12612386-207.12612265 207.12612386 207.12612386 0 0 0-207.12612386-207.12612386 207.12612386 207.12612386 0 0 0-207.12612386 207.12612386 207.12612386 207.12612386 0 0 0 207.12612386 207.12612265m0-517.81530783c228.87436683 0 414.25224651-92.68893984 414.25224651-207.12612386v-103.56306133H97.74775349v103.56306133c0 114.43718281 185.3778809 207.12612386 414.25224651 207.12612386z"  horiz-adv-x="1024" />

    
    <glyph glyph-name="minus-people-fill" unicode="&#58901;" d="M640 301.33333366c-113.92 0-341.333333-56.746667-341.333333-170.666667v-85.33333299h682.666666v85.33333299c0 113.92-227.413333 170.666667-341.333333 170.666667M42.666667 471.99999967v-85.333333h341.333333v85.333333m256-85.333333a170.666667 170.666667 0 0 1 170.666667 170.666667 170.666667 170.666667 0 0 1-170.666667 170.66666599 170.666667 170.666667 0 0 1-170.666667-170.66666599 170.666667 170.666667 0 0 1 170.666667-170.666667z"  horiz-adv-x="1024" />

    
    <glyph glyph-name="plus-people-fill" unicode="&#58918;" d="M640 301.33333366c-113.92 0-341.333333-56.746667-341.333333-170.666667v-85.33333299h682.666666v85.33333299c0 113.92-227.413333 170.666667-341.333333 170.666667m-384 170.66666601V599.9999996700001H170.666667v-128H42.666667v-85.333333h128v-128h85.333333v128h128v85.333333m256-85.333333a170.666667 170.666667 0 0 1 170.666667 170.666667 170.666667 170.666667 0 0 1-170.666667 170.66666599 170.666667 170.666667 0 0 1-170.666667-170.66666599 170.666667 170.666667 0 0 1 170.666667-170.666667z"  horiz-adv-x="1024" />

    
    <glyph glyph-name="account" unicode="&#58920;" d="M512 328.76636665c-147.4737999 0-441.86906294-73.46073221-441.86906294-220.93453083v-165.70089876h883.73812588v165.70089876c0 147.4737999-294.39526304 220.93453212-441.86906294 220.93453083m0 497.10269629a220.93453212 220.93453212 0 0 1-220.93453212-220.93453082 220.93453212 220.93453212 0 0 1 220.93453212-220.93453212 220.93453212 220.93453212 0 0 1 220.93453212 220.93453212 220.93453212 220.93453212 0 0 1-220.93453212 220.93453082m0-602.04659798c164.04388978 0 336.92516126-80.64110364 336.92516126-115.99062914v-60.75699708H175.07483874V107.83183582000004c0 35.3495255 171.22426249 115.99062914 336.92516126 115.99062914m0 497.1026963A115.99062914 115.99062914 0 0 0 627.99062914 604.93453212a115.99062914 115.99062914 0 0 0-115.99062914-115.99062913A115.99062914 115.99062914 0 0 0 396.00937086 604.93453212 115.99062914 115.99062914 0 0 0 512 720.92516126z"  horiz-adv-x="1024" />

    
    <glyph glyph-name="thumb-down-fill" unicode="&#59174;" d="M912.00000031 286.66666666000003h-120V766.66666666h120a40.00000031 40.00000031 0 0 0 39.99999938-40.00000031v-399.99999937a40.00000031 40.00000031 0 0 0-39.99999938-40.00000032z m-211.72000031-51.72l-256.00000031-256.00000031a19.99999969 19.99999969 0 0 0-26.16-1.87999969L384.00000031 2.6666669799999454a60 60 0 0 0-22.12000031 62.79999937L408.00000031 246.66666635H152a79.99999969 79.99999969 0 0 0-79.99999969 80.00000063v84.15999937a79.99999969 79.99999969 0 0 0 6 30.48L201.84000031 741.86666698A40.00000031 40.00000031 0 0 0 238.80000031 766.66666666H672.00000031a40.00000031 40.00000031 0 0 0 39.99999938-40.00000031v-463.44a40.00000031 40.00000031 0 0 0-11.71999969-28.27999969z"  horiz-adv-x="1024" />

    
    <glyph glyph-name="thumb-down" unicode="&#59175;" d="M408.00000031 267.99999968H152a79.99999969 79.99999969 0 0 0-79.99999969 80.00000063v84.15999937a79.99999969 79.99999969 0 0 0 6 30.48L201.84000031 763.20000031A40.00000031 40.00000031 0 0 0 238.80000031 787.99999999H912.00000031a40.00000031 40.00000031 0 0 0 39.99999938-40.00000031v-399.99999937a40.00000031 40.00000031 0 0 0-39.99999938-40.00000032h-139.28000062a40.00000031 40.00000031 0 0 1-32.67999938-16.92l-218.12000062-309.04000031a19.99999969 19.99999969 0 0 0-25.27999969-6.36L424.08000031 12.000000310000019a100.00000031 100.00000031 0 0 0-52.2 114.12L408.00000031 267.99999968z m303.99999938 103.52000063V708.00000031H265.59999969L152 432.15999968V348.00000031h256.00000031a79.99999969 79.99999969 0 0 0 77.52-99.72l-36.12-141.92000063a19.99999969 19.99999969 0 0 1 10.44-22.83999937l26.43999938-13.2 188.4 266.88c10.00000031 14.16 22.8 25.75999969 37.32 34.32zM792.00000031 387.99999968h79.99999969V708.00000031h-79.99999969v-320.00000063z"  horiz-adv-x="1024" />

    
    <glyph glyph-name="thumb-up-fill" unicode="&#59183;" d="M111.99999969 464.00000001h120v-480H111.99999969a40.00000031 40.00000031 0 0 0-39.99999938 40.00000031V423.99999969a40.00000031 40.00000031 0 0 0 39.99999938 40.00000032z m211.72000031 51.72l256.00000031 256.00000031a19.99999969 19.99999969 0 0 0 26.16 1.87999969l34.11999938-25.60000032a60 60 0 0 0 22.12000031-62.79999937L615.99999969 504.00000032H872a79.99999969 79.99999969 0 0 0 79.99999969-80.00000063v-84.15999937a79.99999969 79.99999969 0 0 0-6-30.48l-123.79999969-300.6a40.00000031 40.00000031 0 0 0-37.00000031-24.76000031H351.99999969a40.00000031 40.00000031 0 0 0-39.99999938 40.00000031V487.44000032a40.00000031 40.00000031 0 0 0 11.71999969 28.27999969z"  horiz-adv-x="1024" />

    
    <glyph glyph-name="thumb-up" unicode="&#59187;" d="M615.99999969 508.00000032H872a79.99999969 79.99999969 0 0 0 79.99999969-80.00000063v-84.15999937a79.99999969 79.99999969 0 0 0-6-30.48l-123.79999969-300.6a40.00000031 40.00000031 0 0 0-37.00000031-24.76000031H111.99999969a40.00000031 40.00000031 0 0 0-39.99999938 40.00000031V427.99999969a40.00000031 40.00000031 0 0 0 39.99999938 40.00000032h139.28000062a40.00000031 40.00000031 0 0 1 32.67999938 16.92L502.08000031 793.99999969a19.99999969 19.99999969 0 0 0 25.27999969 6.36l72.55999969-36.27999937a100.00000031 100.00000031 0 0 0 52.2-114.12L615.99999969 508.00000032zM312.00000031 404.47999969V67.99999968999998h446.4L872 343.84000031999994V427.99999969h-256.00000031a79.99999969 79.99999969 0 0 0-77.52 99.72l36.12 141.92000063a19.99999969 19.99999969 0 0 1-10.44 22.83999937l-26.43999938 13.2-188.4-266.88c-10.00000031-14.16-22.8-25.75999969-37.32-34.32zM231.99999969 388.00000032H152v-320.00000063h79.99999969v320.00000063z"  horiz-adv-x="1024" />

    
    <glyph glyph-name="person-delete-fill" unicode="&#58986;" d="M923.1777189 602.4533333300001l35.43798443 35.43798557a48.54518557 48.54518557 0 0 1-71.36142223 71.36142222L851.81629667 675.27111111l-35.43798556 35.43798556a48.54518557 48.54518557 0 0 1-71.36142222-72.81777777l35.43798556-35.43798557-35.43798556-35.43798556a48.54518557 48.54518557 0 0 1 71.36142222-71.36142222L851.81629667 529.6355555499999l35.43798443-35.43798556a48.54518557 48.54518557 0 0 1 71.36142223 72.81777778zM414.90963001 432.54518557a194.18074112 194.18074112 0 1 1-194.18074112 194.18073998 194.18074112 194.18074112 0 0 1 194.18074112-194.18073998zM706.18074112-52.90666667000005a48.54518557 48.54518557 0 0 1 48.54518443 48.54518557 339.81629667 339.81629667 0 0 1-679.63259222 0 48.54518557 48.54518557 0 0 1 48.54518557-48.54518557z"  horiz-adv-x="1024" />

    
    <glyph glyph-name="cut" unicode="&#59720;" d="M367.72977813 313.41866667a182.0444448 182.0444448 0 1 1 45.5111104-83.28533333h45.51111147a45.51111147 45.51111147 0 0 1 31.85777813 13.19822186l21.39022187 21.39022294 21.39022187-21.39022294a45.51111147 45.51111147 0 0 1 31.85777813-13.19822186h45.51111147a182.0444448 182.0444448 0 1 1 45.5111104 83.28533333l-47.78666667 47.78666667 227.55555627 227.5555552A136.53333333 136.53333333 0 0 1 876.08888853 685.2444448V753.5111114700001a22.7555552 22.7555552 0 0 1-22.7555552 22.7555552h-13.19822186a22.3004448 22.3004448 0 0 1-16.384-6.82666667z m481.5075552-64.62577813A91.02222187 91.02222187 0 1 0 785.06666667 275.6444448a91.02222187 91.02222187 0 0 0 64.17066666-26.85155626zM174.76266667 120.45155520000003a91.02222187 91.02222187 0 1 0 128.34133333 128.34133334 91.02222187 91.02222187 0 1 0-128.34133333-128.34133334z m25.48622186 648.9884448A22.3004448 22.3004448 0 0 1 183.86488853 776.26666667H170.66666667a22.7555552 22.7555552 0 0 1-22.7555552-22.7555552V685.2444448a136.53333333 136.53333333 0 0 1 40.04977706-96.48355626l171.12177814-171.57688854 96.4835552 96.4835552z"  horiz-adv-x="1024" />

    
    <glyph glyph-name="fingerprint" unicode="&#59733;" d="M227.5555552 395.37777813c0-219.81866667 102.4-336.78222187 102.4-357.26222293a22.3004448 22.3004448 0 0 0-9.10222187-18.20444373l-19.11466666-12.74311147a21.39022187 21.39022187 0 0 0-12.74311147-4.096c-17.29422187 0-49.152 49.152-77.36888853 121.96977813a788.2524448 788.2524448 0 0 0-52.33777814 265.78488854V475.02222187A358.1724448 358.1724448 0 0 0 512 839.11111147a369.09511147 369.09511147 0 0 0 55.0684448-4.096 22.3004448 22.3004448 0 0 0 15.92888853-10.92266667 22.7555552 22.7555552 0 0 0 0-19.56977813l-8.192-21.84533334a22.3004448 22.3004448 0 0 0-24.576-15.01866666A233.92711147 233.92711147 0 0 1 512 770.8444448c-223.4595552 0-282.624-213.90222187-282.624-292.6364448zM680.39111147 793.6a23.21066667 23.21066667 0 0 1-19.11466667 0 23.21066667 23.21066667 0 0 1-13.19822293-13.65333333l-8.192-22.3004448a22.7555552 22.7555552 0 0 1 10.0124448-27.30666667 281.71377813 281.71377813 0 0 0 143.36-245.30488853v-75.09333334a22.7555552 22.7555552 0 0 1 22.7555552-22.7555552h22.75555626a23.21066667 23.21066667 0 0 1 22.7555552 22.7555552V488.2204448A352.256 352.256 0 0 1 680.39111147 793.6z m-157.01333334-307.2h-22.75555626a22.7555552 22.7555552 0 0 1-22.7555552-22.7555552v-68.26666667a385.93422187 385.93422187 0 0 1 25.94133333-139.264 22.3004448 22.3004448 0 0 1 13.19822187-13.19822293 23.21066667 23.21066667 0 0 1 19.11466666 0l19.56977814 10.92266667a22.3004448 22.3004448 0 0 1 10.4675552 27.76177813 321.3084448 321.3084448 0 0 0-20.02488854 112.4124448v68.26666667a22.7555552 22.7555552 0 0 1-22.7555552 24.12088853z m219.3635552-393.216a322.21866667 322.21866667 0 0 0-124.24533333 96.93866667 22.7555552 22.7555552 0 0 1-28.672 5.9164448l-20.48-11.37777814a22.7555552 22.7555552 0 0 1-7.28177813-33.67822186 396.85688853 396.85688853 0 0 1 155.648-121.05955627 22.7555552 22.7555552 0 0 1 30.03733333 13.19822293l8.192 21.84533334a22.3004448 22.3004448 0 0 1-13.19822187 28.21688853z m-355.89688853 294.00177813a21.39022187 21.39022187 0 0 1-22.75555627 19.56977707h-22.7555552a22.7555552 22.7555552 0 0 1-22.7555552-20.9351104c5.9164448-273.06666667 215.72266667-450.10488853 251.67644374-450.1048896a22.7555552 22.7555552 0 0 1 19.56977813 10.92266667l12.288 19.11466666a21.84533333 21.84533333 0 0 1 3.18577813 11.8328896c0 26.3964448-214.35733333 126.976-218.45333333 409.6z m423.70844373-149.2764448a171.12177813 171.12177813 0 0 0-105.13066666 157.4684448V477.75288853A198.8835552 198.8835552 0 0 1 512 679.82222187a193.87733333 193.87733333 0 0 1-192.96711147-182.04444374 22.3004448 22.3004448 0 0 1 22.75555627-21.84533333h23.21066667a22.7555552 22.7555552 0 0 1 22.7555552 21.84533333 124.7004448 124.7004448 0 0 0 249.40088853-10.46755626v-91.02222187a233.472 233.472 0 0 1 159.744-223.91466667 22.7555552 22.7555552 0 0 1 21.84533333 16.83911147l5.9164448 21.84533333a14.5635552 14.5635552 0 0 1 0 5.91644374 24.12088853 24.12088853 0 0 1-14.1084448 20.93511146z"  horiz-adv-x="1024" />

    
    <glyph glyph-name="home-fill" unicode="&#59748;" d="M948.90666667 373.68248888999995V-3.0281477700000323a48.54518557 48.54518557 0 0 0-48.54518557-48.54518557h-194.18073998a48.54518557 48.54518557 0 0 0-48.54518557 48.54518557v266.99851777a24.27259221 24.27259221 0 0 1-24.27259221 24.27259335h-242.72592668a24.27259221 24.27259221 0 0 1-24.27259221-24.27259335V-3.0281477700000323a48.54518557 48.54518557 0 0 0-48.54518557-48.54518557H123.6385189a48.54518557 48.54518557 0 0 0-48.54518557 48.54518557v376.71063666a145.63555555 145.63555555 0 0 0 42.71976334 102.91579221l331.56361444 331.56361557a48.54518557 48.54518557 0 0 0 33.98163001 14.07810333h57.28331776a48.54518557 48.54518557 0 0 0 33.98163001-14.07810333l331.56361444-331.56361557a145.63555555 145.63555555 0 0 0 42.71976334-102.91579221z"  horiz-adv-x="1024" />

    
    <glyph glyph-name="home" unicode="&#59749;" d="M520.2526811 725.14963l317.48551111-317.48551109a48.54518557 48.54518557 0 0 0 14.07810446-33.98163002V45.51703666000003h-145.63555555v291.27111111a48.54518557 48.54518557 0 0 1-48.54518557 48.54518556H366.36444445a48.54518557 48.54518557 0 0 1-48.54518557-48.54518556v-291.27111111H172.18370333v328.16545223a48.54518557 48.54518557 0 0 0 14.07810446 33.98163001L503.7473189 725.14963h16.5053622m20.38897778 97.09037h-57.28331776a48.54518557 48.54518557 0 0 1-33.98163001-14.07810333l-331.56361444-331.56361557A145.63555555 145.63555555 0 0 1 75.09333333 373.68248888999995V-3.0281477700000323a48.54518557 48.54518557 0 0 1 48.54518557-48.54518557h242.72592555a48.54518557 48.54518557 0 0 1 48.54518556 48.54518557v279.13481443a12.13629667 12.13629667 0 0 0 12.13629554 12.13629669h169.9081489a12.13629667 12.13629667 0 0 0 12.13629554-12.13629669V-3.0281477700000323a48.54518557 48.54518557 0 0 1 48.54518556-48.54518557h242.72592555a48.54518557 48.54518557 0 0 1 48.54518557 48.54518557v376.71063666a145.63555555 145.63555555 0 0 1-42.71976334 102.91579221l-331.56361444 331.56361557a48.54518557 48.54518557 0 0 1-33.98163001 14.07810333z"  horiz-adv-x="1024" />

    
    <glyph glyph-name="hourglass-half-fill" unicode="&#59750;" d="M785.06666667 611.5555552000001V748.08888853h22.7555552a22.7555552 22.7555552 0 0 1 22.75555626 22.75555627v45.5111104a22.7555552 22.7555552 0 0 1-22.75555626 22.75555627h-591.64444374a22.7555552 22.7555552 0 0 1-22.75555626-22.75555627v-45.5111104a22.7555552 22.7555552 0 0 1 22.75555626-22.75555627H238.93333333v-136.53333333a136.53333333 136.53333333 0 0 1 51.4275552-108.31644373L439.18222187 384l-148.82133334-119.23911147A136.53333333 136.53333333 0 0 1 238.93333333 156.44444480000004v-136.53333333h-22.7555552a22.7555552 22.7555552 0 0 1-22.75555626-22.75555627v-45.5111104a22.7555552 22.7555552 0 0 1 22.75555626-22.75555627h591.64444374a22.7555552 22.7555552 0 0 1 22.75555626 22.75555627v45.5111104a22.7555552 22.7555552 0 0 1-22.75555626 22.75555627H785.06666667v136.53333333a136.53333333 136.53333333 0 0 1-51.4275552 106.496L584.81777813 384l148.82133334 119.23911147A136.53333333 136.53333333 0 0 1 785.06666667 611.5555552000001z m-91.02222187 136.53333333v-136.53333333H329.9555552V748.08888853z m-17.29422293-554.32533333A45.51111147 45.51111147 0 0 0 694.0444448 156.44444480000004v-45.51111147H329.9555552v45.51111147a45.51111147 45.51111147 0 0 0 17.29422293 35.49866667L512 325.74577812999996z"  horiz-adv-x="1024" />

    
    <glyph glyph-name="hourglass" unicode="&#59751;" d="M785.06666667 611.5555552000001V748.08888853h22.7555552a22.7555552 22.7555552 0 0 1 22.75555626 22.75555627v45.5111104a22.7555552 22.7555552 0 0 1-22.75555626 22.75555627h-591.64444374a22.7555552 22.7555552 0 0 1-22.75555626-22.75555627v-45.5111104a22.7555552 22.7555552 0 0 1 22.75555626-22.75555627H238.93333333v-136.53333333a136.53333333 136.53333333 0 0 1 51.4275552-108.31644373L439.18222187 384l-148.82133334-119.23911147A136.53333333 136.53333333 0 0 1 238.93333333 156.44444480000004v-136.53333333h-22.7555552a22.7555552 22.7555552 0 0 1-22.75555626-22.75555627v-45.5111104a22.7555552 22.7555552 0 0 1 22.75555626-22.75555627h591.64444374a22.7555552 22.7555552 0 0 1 22.75555626 22.75555627v45.5111104a22.7555552 22.7555552 0 0 1-22.75555626 22.75555627H785.06666667v136.53333333a136.53333333 136.53333333 0 0 1-51.4275552 106.496L584.81777813 384l148.82133334 119.23911147A136.53333333 136.53333333 0 0 1 785.06666667 611.5555552000001z m-108.3164448-415.9715552A45.51111147 45.51111147 0 0 0 694.0444448 156.44444480000004v-136.53333333H329.9555552v136.53333333a45.51111147 45.51111147 0 0 0 17.29422293 35.49866667L512 325.74577812999996z m0 380.47288853L512 442.25422187l-164.75022187 131.98222293A45.51111147 45.51111147 0 0 0 329.9555552 611.5555552000001V748.08888853h364.0888896v-136.53333333a45.51111147 45.51111147 0 0 0-17.29422293-37.3191104z"  horiz-adv-x="1024" />

    
    <glyph glyph-name="lock-open" unicode="&#59763;" d="M768 471.99999967H341.333333V557.33333367a170.666667 170.666667 0 0 0 341.333334 0h85.333333A256 256 0 0 1 256 557.33333367v-85.333334a85.333333 85.333333 0 0 1-85.333333-85.333333v-341.333333a85.333333 85.333333 0 0 1 85.333333-85.33333401h512a85.333333 85.333333 0 0 1 85.333333 85.33333401v341.333333a85.333333 85.333333 0 0 1-85.333333 85.333333z m0-426.666666H256v341.333333h512zM426.666667 301.33333366m42.666666 0l85.333334 0q42.666667 0 42.666666-42.66666699l0-85.333333q0-42.666667-42.666666-42.66666701l-85.333334 0q-42.666667 0-42.666666 42.66666701l0 85.333333q0 42.666667 42.666666 42.66666699Z"  horiz-adv-x="1024" />

    
    <glyph glyph-name="integral-fill" unicode="&#59139;" d="M657.05239703 485.6722963h-271.85303703a38.83614815 38.83614815 0 0 0 0 77.67229628h271.85303703a38.83614815 38.83614815 0 0 0 0-77.67229628m312.12612267 84.70163911L900.55504591 736.24312414a87.45900563 87.45900563 0 0 1-10.48575999 17.9811366V757.52533333h-2.48551347c-18.52484267 23.068672-48.1568237 38.83614815-77.05091793 38.83614814H231.60239408c-28.85525808 0-58.52607525-15.72864-77.01208179-38.83614814H152.18247111v-3.33990874a85.43952592 85.43952592 0 0 1-10.56343229-18.0588089L72.95672889 570.06324621c-13.59265185-32.93305363-6.83516208-78.41018311 15.76747614-105.8285037l63.41942994-76.89557333L231.21403258 291.49155555000004l235.07520475-285.05732741c13.98101333-16.89372445 33.94279348-26.60276148 54.75896888-26.60276147h0.03883616c20.85501155 0 40.8167917 9.74787318 54.75896888 26.64159763L810.8435437 291.49155555000004l79.22574222 96.15830282 63.38059378 76.89557333c22.9909997 27.84551822 29.59314489 72.351744 15.76747614 105.82850371"  horiz-adv-x="1024" />

    
    <glyph glyph-name="integral" unicode="&#59140;" d="M893.48686696 513.94501215l-372.43866075-451.81974756L148.68721778 513.6343229700001c-4.46615703 5.43706075-6.60214518 20.19479703-3.88361482 26.7969422l68.62347379 166.0633695c2.25249659 5.47589689 12.31105897 12.19455052 18.25298962 12.19455051h578.89162429c5.82542222 0 16.03932918-6.83516208 18.25298964-12.19455051l68.62347378-165.8303526c2.83503882-6.83516208 0.77672297-21.0491923-3.88361483-26.71926992m75.65281659 56.42892326L900.55504591 736.24312414C886.30217954 770.49660681 847.621376 796.36148147 810.53285452 796.36148147H231.60239408c-37.12735763 0-75.84699733-25.90371082-90.02219141-60.23486578L72.95672889 570.06324621c-13.59265185-32.93305363-6.83516208-78.41018311 15.76747614-105.8285037l377.5650323-457.80051437c13.98101333-16.89372445 33.94279348-26.60276148 54.75896888-26.60276147h0.03883616c20.85501155 0 40.8167917 9.74787318 54.75896888 26.64159763l377.5650323 458.0723674c22.9909997 27.84551822 29.59314489 72.351744 15.76747615 105.82850371M657.01356088 563.3445925799999h-271.85303703a38.83614815 38.83614815 0 0 1 0-77.67229628h271.85303703a38.83614815 38.83614815 0 0 1 0 77.67229628"  horiz-adv-x="1024" />

    
    <glyph glyph-name="coupon" unicode="&#59566;" d="M640 505.083333a32 32 0 0 0 0-64H384a32 32 0 0 0 0 64h256z m0-170.666666a32 32 0 0 0 0-64H384a32 32 0 0 0 0 64h256zM117.333333 462.416667a32 32 0 0 0-32 32V643.74999999c0 64.8 52.533333 117.333333 117.333334 117.33333301h618.666666c64.8 0 117.333333-52.533333 117.333334-117.333333v-149.333333a32 32 0 0 0-32-32 74.666667 74.666667 0 0 1 0-149.333334 32 32 0 0 0 32-32v-149.333333c0-64.8-52.533333-117.333333-117.333334-117.333333H202.666667c-64.8 0-117.333333 52.533333-117.333334 117.333333V281.08333300000004a32 32 0 0 0 32 32 74.666667 74.666667 0 0 1 0 149.333334z m138.666667-74.666667c0-65.568-45.514667-120.512-106.666667-134.954667V131.75a53.333333 53.333333 0 0 1 53.333334-53.333333h618.666666a53.333333 53.333333 0 0 1 53.333334 53.333333V252.79533300000003C813.514667 267.23800000000006 768 322.182 768 387.75c0 65.568 45.514667 120.512 106.666667 134.954667V643.74999999a53.333333 53.333333 0 0 1-53.333334 53.33333301H202.666667a53.333333 53.333333 0 0 1-53.333334-53.333333v-121.045333C210.485333 508.262 256 453.318 256 387.75z"  horiz-adv-x="1024" />

    
    <glyph glyph-name="coupon-fill" unicode="&#59588;" d="M821.333333 765.083333c64.8 0 117.333333-52.533333 117.333334-117.33333301v-149.33333299a32 32 0 0 0-32-32 74.666667 74.666667 0 0 1 0-149.333334 32 32 0 0 0 32-32v-149.333333c0-64.8-52.533333-117.333333-117.333334-117.333333H202.666667c-64.8 0-117.333333 52.533333-117.333334 117.333333V285.08333300000004a32 32 0 0 0 32 32 74.666667 74.666667 0 0 1 0 149.333334 32 32 0 0 0-32 32V647.74999999c0 64.8 52.533333 117.333333 117.333334 117.33333301h618.666666zM640 338.41666699999996H384a32 32 0 0 1 0-64h256a32 32 0 0 1 0 64z m0 170.666666H384a32 32 0 0 1 0-64h256a32 32 0 0 1 0 64z"  horiz-adv-x="1024" />

    
    <glyph glyph-name="kefu-ermai" unicode="&#58966;" d="M874.1888 472.47274666c-6.79936 82.80064-41.78944 163.71712-105.1392 227.06176001C698.06592 770.51818666 605.0304 806.01002667 512 806.01002667s-186.06592-35.49184-257.0496-106.47040001C191.60576 636.18474667 156.61056 555.27338667 149.8112 472.47274666 104.27392 456.19626667 71.68 412.69674667 71.68 361.56330667v-71.68c0-65.03936 52.72064-117.76 117.76-117.76000001s117.76 52.72064 117.76 117.76000001v71.68c0 53.6576-35.90144 98.90304-84.98688 113.10591999 6.9888 63.67232 34.7136 125.47072 83.42528 174.1824C360.76032 703.97354667 434.048 734.3300266599999 512 734.3300266599999s151.23968-30.35648 206.3616-85.4784c47.44192-47.44192 76.48256-108.35968 83.66592-174.11583999C752.8192 460.61482666 716.8 415.31306667 716.8 361.56330667v-71.68c0-48.16896 28.93312-89.55904 70.35904-107.8016-26.00448-41.00096-56.76032-85.13024-74.82368-100.18304001-14.336-11.94496-24.83712-13.056-59.03872-15.04767999-3.30752-0.19456-6.82496-0.40448-10.43456-0.62976-10.72128 26.08128-36.352 44.46208-66.29888 44.46207999h-61.44c-39.58784 0-71.68-32.09216-71.68-71.67999999s32.09216-71.68 71.68-71.68h61.44c22.3488 0 42.29632 10.23488 55.44448 26.26048 9.25184 0.75264 17.79712 1.25952 25.45664 1.71008 37.79584 2.2016 67.64544 3.9424 100.75648 31.53408 35.62496 29.67552 87.35744 112.37888 110.04928 150.21568 48.60928 14.49984 84.05504 59.52 84.05504 112.83456v71.67999999c-0.00512 51.13856-32.59904 94.63808-78.13632 110.91456zM235.52 289.88330667c0-25.41056-20.67456-46.08-46.08-46.08s-46.08 20.66944-46.08 46.08v71.68c0 25.41056 20.67456 46.08 46.08 46.08s46.08-20.66944 46.08-46.08v-71.68z m645.12 0c0-25.41056-20.67456-46.08-46.08-46.08s-46.08 20.66944-46.08 46.08v71.68c0 25.41056 20.67456 46.08 46.08 46.08s46.08-20.66944 46.08-46.08v-71.68z"  horiz-adv-x="1024" />

    
    <glyph glyph-name="scan" unicode="&#58978;" d="M258.875 386.66666667c0-23.25 18.9375-42.1875 42.1875-42.1875h421.875c23.25 0 42.1875 18.9375 42.1875 42.1875s-18.9375 42.1875-42.1875 42.1875H301.0625c-23.25 0-42.1875-18.9375-42.1875-42.1875zM821.375 808.54166667H624.5c-23.34375 0-42.1875-18.84375-42.1875-42.1875s18.84375-42.1875 42.1875-42.1875h168.75c31.03125 0 56.25-25.21875 56.25-56.25v-168.75c0-23.34375 18.84375-42.1875 42.1875-42.1875s42.1875 18.84375 42.1875 42.1875V696.04166667c0 62.15625-50.34375 112.5-112.5 112.5zM132.3125 456.97916667c23.34375 0 42.1875 18.84375 42.1875 42.1875V667.91666667c0 31.03125 25.21875 56.25 56.25 56.25h168.75c23.34375 0 42.1875 18.84375 42.1875 42.1875s-18.84375 42.1875-42.1875 42.1875H202.625c-62.15625 0-112.5-50.34375-112.5-112.5v-196.875c0-23.34375 18.84375-42.1875 42.1875-42.1875zM399.5 49.16666667000004H230.75c-31.03125 0-56.25 25.21875-56.25 56.25V274.16666667000004c0 23.34375-18.84375 42.1875-42.1875 42.1875s-42.1875-18.84375-42.1875-42.1875v-196.875c0-62.15625 50.34375-112.5 112.5-112.5h196.875c23.34375 0 42.1875 18.84375 42.1875 42.1875s-18.84375 42.1875-42.1875 42.1875zM891.6875 316.35416667000004c-23.34375 0-42.1875-18.84375-42.1875-42.1875v-168.75c0-31.03125-25.21875-56.25-56.25-56.25H624.5c-23.34375 0-42.1875-18.84375-42.1875-42.1875s18.84375-42.1875 42.1875-42.1875h196.875c62.15625 0 112.5 50.34375 112.5 112.5V274.16666667000004c0 23.34375-18.84375 42.1875-42.1875 42.1875z"  horiz-adv-x="1024" />

    
    <glyph glyph-name="rmb" unicode="&#58888;" d="M832.27293333 306.12693333000004c26.5408 0 50.33493333-16.47253333 50.33493334-40.27093333 0-20.1344-23.7952-38.44053333-50.33493334-38.44053334H551.298V-3.221333329999993c0-20.1344-19.22133333-43.9296-50.33493333-43.9296-28.37226667 0-52.1696 23.7952-52.1696 43.9296V227.41546666H179.7172c-26.5408 0-48.50773333 18.3072-48.50773332 40.27093333s21.9648 38.44053333 48.50773332 38.44053334H449.70866668V426.0224H179.7172c-26.5408 0-48.50773333 15.5584-48.50773332 40.27093333 0 20.1344 21.9648 37.5232 48.50773332 37.5232h232.4672L224.5652 755.50293333c-9.15093333 20.1344-2.74346667 50.33493333 20.1344 61.31840001 24.7136 11.89866667 50.33493333 0.91413333 63.14986667-15.55840001l194.94293334-262.66986666 198.6048 243.4496c12.81493333 18.3072 40.27093333 42.10133333 73.21919999 22.88106666 34.77866667-21.04853333 12.81493333-62.2368 12.81493333-62.2368L592.4884 504.7264h228.8064c26.5408 0 50.33493333-16.47253333 50.33493333-39.35573334s-23.7952-38.44053333-50.33493333-38.44053333H551.30333334v-119.89546666l280.97493333-0.91413333z"  horiz-adv-x="1024" />

    
    <glyph glyph-name="rmb-circle-fill" unicode="&#58967;" d="M697.27343723 414.16145861a28.12499973 28.12499973 0 0 0-28.82812446-27.421875h-126.5625v-52.734375h100.1953125a29.53125 29.53125 0 0 0 28.82812446-28.82812528v-3.1640625a28.12499973 28.12499973 0 0 0-28.82812446-27.07031222h-100.54687527v-123.04687555a29.53125 29.53125 0 0 0-59.41406277 0v123.04687555H381.57031277a26.71875027 26.71875027 0 0 0-27.77343777 27.07031222v3.1640625a28.4765625 28.4765625 0 0 0 27.77343777 28.82812528h100.89843723V385.33333333H355.20312527a28.12499973 28.12499973 0 0 0-28.12500054 27.77343778v2.81249972a28.4765625 28.4765625 0 0 0 28.12500054 28.4765625h137.109375L393.17187527 544.59114583a29.88281277 29.88281277 0 0 0 42.1875 42.1875L512 510.48958306l76.28906277 76.28906277a29.53125 29.53125 0 1 0 41.83593723-41.83593723l-97.38281277-97.03124999h137.46093777a30.23437473 30.23437473 0 0 0 28.82812527-29.53125zM512 807.20833333a421.875 421.875 0 1 1 421.875-421.875A421.875 421.875 0 0 1 512 807.20833333z"  horiz-adv-x="1024" />

    
    <glyph glyph-name="rmb-circle" unicode="&#58999;" d="M768.2890625 130.37760417000004A362.8125 362.8125 0 0 0 178.01562527 246.04166639000005 362.8125 362.8125 0 0 0 371.37499973 720.65104139 362.8125 362.8125 0 0 0 845.98437473 527.29166694a362.10937527 362.10937527 0 0 0-77.69531223-397.26562555zM512 808.54166667a421.875 421.875 0 1 1 421.875-421.875A421.875 421.875 0 0 1 512 808.54166667zM668.09375 474.90885389h-137.46093777l97.38281277 97.03125a29.53125 29.53125 0 1 1-41.83593723 41.83593805L512 538.19010389 435.35937527 614.83072944a29.88281277 29.88281277 0 0 1-42.1875-42.1875l97.38281196-97.38281277H354.8515625a28.4765625 28.4765625 0 0 1-28.12499973-28.4765625v-2.81249973a28.12499973 28.12499973 0 0 1 28.12499973-27.77343777h127.26562473v-52.734375H381.21875a28.4765625 28.4765625 0 0 1-27.77343777-28.82812528v-3.1640625a26.71875027 26.71875027 0 0 1 27.77343777-27.07031222h100.89843723v-123.04687473a29.53125 29.53125 0 0 1 59.41406277 0v123.04687473h100.1953125a28.12499973 28.12499973 0 0 1 28.82812527 27.07031222v3.1640625a29.53125 29.53125 0 0 1-28.82812527 28.82812528h-100.1953125V414.79166639h126.5625a28.12499973 28.12499973 0 0 1 28.82812527 27.421875v3.1640625a30.23437473 30.23437473 0 0 1-28.82812527 29.53125z"  horiz-adv-x="1024" />

    
    <glyph glyph-name="gift" unicode="&#58971;" d="M814.61386812 371.77852072999997L206.65966062 371.77852072999997c-18.66606469 0-33.72017812-15.13661719-33.72017812-33.85160906l0-337.5337125c0-18.66510469 15.08769094-33.85160906 33.72017812-33.85160907l607.95516657 0c18.66606469 0 33.72017812 15.13661719 33.72017812 33.85160907L848.33500531 337.92691260000004C848.33500531 356.64190354000004 833.24635531 371.77852072999997 814.61386812 371.77852072999997zM476.86718 17.19620759999998L240.46138344 17.19620759999998c-9.33255281 0-16.86824344 7.51938187-16.86824344 16.76943L223.59314 304.35543323c0 9.26635781 7.68439031 16.76847094 16.86824344 16.76847094l236.40579656 0L476.86718 17.19620759999998zM797.67942969 33.965637600000036c0-9.26731687-7.68343031-16.76943-16.86824344-16.76943L544.40634875 17.19620759999998 544.40634875 321.12486417l236.4048375 0c9.33351187 0 16.86824344-7.51842281 16.86824344-16.76847094L797.67942969 33.965637600000036zM848.25250062 608.1670494800001L681.28346562 608.1670494800001c18.33508875 2.48183719 36.24230813 9.70382063 51.47869782 22.47468187 42.87141281 35.96313656 48.44523375 99.87500438 12.49840594 142.73010938-35.97944625 42.85510406-99.85869562 48.44523375-142.73010938 12.48209719-15.66426-13.12486125-26.349495-29.99406375-31.85712094-48.19772157L511.34524438 609.2223341700001c-0.23024344-0.3213825-0.29739844-0.72526781-0.52764188-1.05528469l-0.36263438 0c-0.23120344 0.33001594-0.29739844 0.73390219-0.52764187 1.05528469l-59.32905469 128.43388218c-5.50666687 18.20365781-16.19190187 35.07286031-31.85616187 48.19772157-42.87141281 35.96313656-106.75066313 30.37300688-142.73010938-12.48209719-35.94682781-42.85510406-30.37300688-106.76793094 12.49840594-142.73010938 15.23638969-12.77086125 33.14360906-19.99284469 51.47869781-22.47468187L173.02102813 608.1670494800001c-18.66606469 0-33.85256812-15.18650344-33.85256813-33.91780406l0-134.78285719c0-18.64879594 15.15388594-33.91780406 33.85256813-33.91780406l675.23147343 0c18.66510469 0 33.85160906 15.18650344 33.85160906 33.91780406L882.10410969 574.2492454200001C882.10410969 592.93161885 866.95118281 608.1670494800001 848.25250062 608.1670494800001zM623.40590656 735.74423198c0.19762594 0.44513812 0.39621094 0.8739675 0.59383781 1.30279687l1.23660188 2.67178875 0.08250375-0.09881343c2.93560969 5.32534969 6.89292656 10.20652031 11.82206437 14.36146312 21.41939719 18.00699094 53.37629063 15.22008094 71.36601375-6.24920344 17.98972313-21.43570688 15.20281219-53.39164031-6.25016249-71.36505468-3.90743062-3.29824406-8.21203219-5.90287781-12.69603188-7.81582125l0.26382094-0.31370719-117.56828907-43.53144563L623.40590656 735.74423198zM319.01676219 676.3662501c-21.45297469 17.97245438-24.23988562 49.92838875-6.2501625 71.36505469 17.98972313 21.46928344 49.94565656 24.25619437 71.36505469 6.24920344 4.93105688-4.15494281 8.88837375-9.03611344 11.82302437-14.36146313l0.08250375 0.09881344 1.23660188-2.67178875c0.19762594-0.42882938 0.39525187-0.85765875 0.59287781-1.30279687l51.14964094-111.03799594-117.56828907 43.53144562 0.26382094 0.31370719C327.22783531 670.46337229 322.92419375 673.06896604 319.01676219 676.3662501zM476.86718 456.20320073L206.65966062 456.20320073c-9.29993438 0-16.835625 7.61723531-16.835625 16.73585344l0 67.83656718c0 9.25100813 7.65081281 16.7368125 16.835625 16.7368125l270.20751938 0L476.86718 456.20320073zM831.44949313 472.94001323c0-9.25004813-7.65177187-16.73585344-16.83562501-16.73585344L544.40634875 456.20415979 544.40634875 557.51243292l270.20751938 0c9.29993438 0 16.835625-7.61819531 16.83562499-16.7368125L831.44949313 472.94001323z"  horiz-adv-x="1024" />

    
    </font>
</defs>
</svg>
